\m/ 80's metal \m/

Информационно-аналитический форум "80 см пыли" (In Search We Trust) "У нас никто никуда не спешит"
Me For You - http://me-4u.com
It is currently 20 May 2019

All times are UTC + 3 hours

Spoiler
Chat - temporary registration for foreign users (please leave your application here)







Post new topic Reply to topic  [ 10 posts ] 
Author Message
 
PostPosted: 08 Jul 2011 
хард н хэвщик (support team)
User avatar
Joined: 02 Jun 2008
Posts: 16881
Lоcаtion: Н.Новгород
Age: 32
Name: Артем
Attachment:
dist.JPG
dist.JPG [ 40.34 KiB | Viewed 122 times ]


Disturbance - We Come Out At Night - 1993

1. No More 3:59
2. Resolution 3:50
3. Cryin' 3:58
4. Best of My Love 4:33
5. Turn Around 4:23
6. To Know You 4:43
7. Outta Love 4:05
8. We Come Out at Night 5:39
9. Seasons 2:51
10. Rock 'n Roll Me Down 3:51
11. New York City 3:42
12. All I Want to Be 7:36

формат: ape+cue. Лог и ковров нет, но коврики можно забрать отсюда.

When We Come Out at Night was released in 1993, commercial pop-metal was on the decline. Alternative rock was becoming rock's dominant direction, and labels were hungrily looking for the next Pearl Jam or the next Nirvana -- not the next Bon Jovi or the next Winger. But that didn't stop Zoo from putting out this glossy pop-metal disc by Disturbance, a band that draws on such influences as Motley Crue, Warrant, Poison and Van Halen. Tunes like "No More," "Cryin" and "New York City" aren't the least bit innovative, and in 1993, this type of hook-minded hard rock was sounding increasingly dated and anachronistic. But that doesn't erase the fact that this is a generally fun, if unremarkable and uneven, CD. The obscure Disturbance was everything pop-metal and glam metal were stereotyped as being -- decadent, trashy, hedonistic and rowdy. Though not in a class with Motley Crue or Poison, Disturbance had some potential. Unfortunately for Disturbance, this little-known album became a victim of bad timing. Had We Come Out at Night been released in the 1980s or even 1991 and had the right promotion from the right label, it might have been a hit. But in 1993, Disturbance was unable to break through commercially. ~ Alex Henderson

послушать семплы:
http://www.cduniverse.com/search/xx/mus ... +Night.htm
http://www.amazon.com/We-Come-Out-at-Ni ... B000008F3Y

ape
cue

спасибо за альбом моему земляку Димке :true:


Top
 Profile  
 
 
PostPosted: 08 Jul 2011 
Хиппей (support team)
User avatar
Joined: 30 Jul 2007
Posts: 112583
Lоcаtion: Киев (Kyiv, UA)
Age: 45
Name: Andrey
Димке и Артёму спасибо :thanx:
mirror: MultiUp l Narod

cue
REM DISCID 9B0C910C
REM COMMENT "ExactAudioCopy v0.95b2"
PERFORMER "Disturbance"
TITLE "We Come Out At Night"
FILE "Disturbance 1993 We Come Out At Night.ape" WAVE
TRACK 01 AUDIO
TITLE "No More"
PERFORMER "Disturbance"
INDEX 01 00:00:00
TRACK 02 AUDIO
TITLE "Resolution"
PERFORMER "Disturbance"
INDEX 01 03:59:32
TRACK 03 AUDIO
TITLE "Cryin'"
PERFORMER "Disturbance"
INDEX 00 07:50:55
INDEX 01 07:51:15
TRACK 04 AUDIO
TITLE "Best Of My Love"
PERFORMER "Disturbance"
INDEX 00 11:50:45
INDEX 01 11:50:72
TRACK 05 AUDIO
TITLE "Turn Around"
PERFORMER "Disturbance"
INDEX 00 16:26:05
INDEX 01 16:26:42
TRACK 06 AUDIO
TITLE "To Know You"
PERFORMER "Disturbance"
INDEX 01 20:51:70
TRACK 07 AUDIO
TITLE "Outta Love"
PERFORMER "Disturbance"
INDEX 00 25:37:55
INDEX 01 25:39:37
TRACK 08 AUDIO
TITLE "We Come Out At Night"
PERFORMER "Disturbance"
INDEX 00 29:44:65
INDEX 01 29:45:32
TRACK 09 AUDIO
TITLE "Seasons"
PERFORMER "Disturbance"
INDEX 01 35:27:10
TRACK 10 AUDIO
TITLE "Rock 'N Roll Me Down"
PERFORMER "Disturbance"
INDEX 01 38:20:12
TRACK 11 AUDIO
TITLE "New York City"
PERFORMER "Disturbance"
INDEX 00 42:13:60
INDEX 01 42:14:20
TRACK 12 AUDIO
TITLE "All I Want To Be"
PERFORMER "Disturbance"
INDEX 01 45:58:35

_________________


Top
 Profile E-mail  
 
 
PostPosted: 08 Jul 2011 
Персональный статус
User avatar
Joined: 02 Jul 2009
Posts: 293
Name: Александр
Сэплы просто красота . Тут и думать нечего . Огроменное спасибо !!!!!! :thanx: :ura:


Top
 Profile E-mail  
 
 
PostPosted: 08 Jul 2011 
10cm
User avatar
Joined: 22 Mar 2011
Posts: 90
Lоcаtion: Брянск
Age: 28
Name: Олег
Спасибо! интересно будет послушать.раньше не слышал этих ребят :thanx:

_________________
Death To All But Metal!!!!


Top
 Profile E-mail  
 
 
PostPosted: 08 Jul 2011 
спирт 100%
User avatar
Joined: 22 Sep 2008
Posts: 4415
Age: 47
Name: Саня
Тоже не слышал, Артёму И Земляку :thanx: :true:


Top
 Profile  
 
 
PostPosted: 11 Jul 2011 
Персональный статус
Joined: 02 Apr 2010
Posts: 223
Name: Андрей
Спасибо Артём! :thanx:


Top
 Profile  
 
 
PostPosted: 20 Sep 2011 
Хиппей (support team)
User avatar
Joined: 30 Jul 2007
Posts: 112583
Lоcаtion: Киев (Kyiv, UA)
Age: 45
Name: Andrey
Мдя уж... Совершенно не моя музыка :(
Ожидал услышать что-то попсовое, но не до такой же степени и не такое скучное :fingal:
Не знаю, может мне просто надоел за день этот коммерческий мелодичный хард на грани АОРа, но, скорее всего дело в самой музыке - совершенно не цепляет.
Ни одного хита, монотонная мелодичная шняга для радиостанций, различных кафешек, в которых жирные официантки катаются на роликах, пьяных забегаловок, езды на мапеде с коляской и примитивным сексом с брёвнами :esel:


Сорри меня, если что, но альбом фтопку :yyy:

0/10

Впрочем, туда же и первый, по этой тематике, заслушанный три раза сегодня с утра, но так и не понятый мною. А это, если что, была группа Autograph с альбомом от 1984 года - "Sign In Please".
Казалось бы, классика мелодичного рока, но... шо вы в ней нашли? :shok:

Вот Деф Леппард 87-й и 91-й, вот это вещь, а эти...

Или я не прав и не смог вкусить всей прелести данных альбомов?

зы. Пойду срочно трэшу отслушаю, а то сблевану от этой сахарной музыки :oops:

ыз. У меня всё хорошо в личной жизни, угу, но без особой романтики. Просто такая вот музыка угнетает, чего-то :vic:

_________________


Top
 Profile E-mail  
 
 
PostPosted: 20 Sep 2011 
Хиппей (support team)
User avatar
Joined: 30 Jul 2007
Posts: 112583
Lоcаtion: Киев (Kyiv, UA)
Age: 45
Name: Andrey
Да, кстати, а альтернативный душок (и фанк-элементы) все же и на этом альбоме есть :pardon:

_________________


Top
 Profile E-mail  
 
 
PostPosted: 17 Nov 2011 
хард н хэвщик (support team)
User avatar
Joined: 02 Jun 2008
Posts: 16881
Lоcаtion: Н.Новгород
Age: 32
Name: Артем
коврики
disturbance ARTWORK.rar


Top
 Profile  
 
 
PostPosted: 17 Nov 2011 
Хиппей (support team)
User avatar
Joined: 30 Jul 2007
Posts: 112583
Lоcаtion: Киев (Kyiv, UA)
Age: 45
Name: Andrey
McKagan wrote:
коврики

:thanx:

_________________


Top
 Profile E-mail  
 
Display posts from previous:  Sort by  
Post new topic Reply to topic  [ 10 posts ] 

All times are UTC + 3 hours


Who is online

Users browsing this forum: No registered users and 2 guests


You cannot post new topics in this forum
You cannot reply to topics in this forum
You cannot edit your posts in this forum
You cannot delete your posts in this forum
You cannot post attachments in this forum

Search for:
Яндекс.Метрика
cron
Powered by phpBB © 2000, 2002, 2005, 2007 phpBB Group