\m/ 80's metal \m/

Информационно-аналитический форум "80 см пыли" (In Search We Trust) "У нас никто никуда не спешит"
Me For You - http://me-4u.com
It is currently 18 Jul 2019

All times are UTC + 3 hours

Spoiler
Chat - temporary registration for foreign users (please leave your application here)







Post new topic Reply to topic  [ 7 posts ] 
Author Message
 
PostPosted: 07 Jun 2011 
Пионэръ
User avatar
Joined: 15 Mar 2011
Posts: 17
Lоcаtion: Spain
Name: Tuco Pacífico
Image

Band: Dwarr
Album: Animals
Year: 1986
Country: U.S.A
Genre: PsychoProgDoom Hard Rock/Heavy Metal
Format: CDRip (rar.APE + CUE + LOG + Covers)
Length: 41:36 min
Size: 321 mb
Release: by Tuco Pacífico[EsparaelMetal]

Image

Image

Tracklist:

1. Animals
2. Cannabinol: The Function
3. That Deadly Night
4. Are You Real?
5. Chocolate Mescaline
6. Ghost Lovers
7. Just Keep Running
8. Evil Lures
9. Lonely Space Traveler
10. Time
11. Heavy Vibrations
12. Electric Shock
13. Lucky Star

Скачать:
MULTILINK
LOG
Code:
Exact Audio Copy V0.99 prebeta 5 from 4. May 2009

Exact Audio Copy V1.0 beta 1 from 15. November 2010

EAC extraction logfile from 7. June 2011, 10:49

DWARR / Animals

Used drive  : TSSTcorpCDDVDW SE-S084F   Adapter: 3  ID: 0

Read mode               : Secure
Utilize accurate stream : Yes
Defeat audio cache      : Yes
Make use of C2 pointers : No

Read offset correction                      : 6
Overread into Lead-In and Lead-Out          : No
Fill up missing offset samples with silence : Yes
Delete leading and trailing silent blocks   : No
Null samples used in CRC calculations       : Yes
Used interface                              : Native Win32 interface for Win NT & 2000

Used output format : Internal WAV Routines
Sample format      : 44.100 Hz; 16 Bit; Stereo


TOC of the extracted CD

     Track |   Start  |  Length  | Start sector | End sector
    ---------------------------------------------------------
        1  |  0:00.00 |  3:18.31 |         0    |    14880   
        2  |  3:18.31 |  2:37.64 |     14881    |    26719   
        3  |  5:56.20 |  3:37.41 |     26720    |    43035   
        4  |  9:33.61 |  4:14.61 |     43036    |    62146   
        5  | 13:48.47 |  2:23.61 |     62147    |    72932   
        6  | 16:12.33 |  4:26.27 |     72933    |    92909   
        7  | 20:38.60 |  2:53.40 |     92910    |   105924   
        8  | 23:32.25 |  2:00.45 |    105925    |   114969   
        9  | 25:32.70 |  4:00.23 |    114970    |   132992   
       10  | 29:33.18 |  2:07.28 |    132993    |   142545   
       11  | 31:40.46 |  3:07.71 |    142546    |   156641   
       12  | 34:48.42 |  2:32.47 |    156642    |   168088   
       13  | 37:21.14 |  4:13.04 |    168089    |   187067   


Range status and errors

Selected range

     Filename D:\Dwarr\DWARR - Animals.wav

     Peak level 99.9 %
     Extraction speed 0.4 X
     Range quality 100.0 %
     Test CRC F739B41D
     Copy CRC F739B41D
     Copy OK

No errors occurred


AccurateRip summary

Track  1  accurately ripped (confidence 1)  [D4D375EB]
Track  2  accurately ripped (confidence 1)  [E0DFE7A2]
Track  3  accurately ripped (confidence 1)  [93767A44]
Track  4  accurately ripped (confidence 1)  [7A0272E7]
Track  5  accurately ripped (confidence 1)  [BCADA0CA]
Track  6  accurately ripped (confidence 1)  [32629372]
Track  7  accurately ripped (confidence 1)  [9B29878D]
Track  8  accurately ripped (confidence 1)  [B34B3F4E]
Track  9  accurately ripped (confidence 1)  [24DC332F]
Track 10  accurately ripped (confidence 1)  [D5B3B702]
Track 11  accurately ripped (confidence 1)  [9E981D16]
Track 12  accurately ripped (confidence 1)  [23C3991D]
Track 13  accurately ripped (confidence 1)  [AA2EEF33]

All tracks accurately ripped

End of status report



Top
 Profile E-mail  
 
 
PostPosted: 07 Jun 2011 
Хиппей (support team)
User avatar
Joined: 30 Jul 2007
Posts: 113524
Lоcаtion: Киев (Kyiv, UA)
Age: 46
Name: Andrey
Tuco Pacífico wrote:
PsychoProgDoom

:scratch:

Thanx, "Tuco" :thanx:

mirror: Narod

_________________


Top
 Profile E-mail  
 
 
PostPosted: 07 Jun 2011 
Прокъмитолист
User avatar
Joined: 12 Aug 2007
Posts: 6574
Lоcаtion: Санктъ-Петербуркъ
Age: 51
Name: Олекъ
thank you! :thanx: :true:

_________________
прокъметол - это музыко, от которово есть прок (ы)


Top
 Profile  
 
 
PostPosted: 07 Jun 2011 
А может смените мне статус?..
Joined: 03 Jul 2009
Posts: 877
Lоcаtion: Serbia
Name: Laki
Fantastic Thanks !!!!


Top
 Profile E-mail  
 
 
PostPosted: 23 Jul 2012 
Труъ
User avatar
Joined: 05 Oct 2008
Posts: 194
Lоcаtion: Saint Petersburg
Age: 46
Name: Jesse
:thanx:


Top
 Profile  
 
 
PostPosted: 23 Jul 2012 
Хиппей (support team)
User avatar
Joined: 30 Jul 2007
Posts: 113524
Lоcаtion: Киев (Kyiv, UA)
Age: 46
Name: Andrey
Вадим, ты только до буквы Д сегодня дошёл?.. :(

_________________


Top
 Profile E-mail  
 
 
PostPosted: 23 Jul 2012 
Труъ
User avatar
Joined: 05 Oct 2008
Posts: 194
Lоcаtion: Saint Petersburg
Age: 46
Name: Jesse
пока до N
Но возможно осилю и дальше :crazy:


Top
 Profile  
 
Display posts from previous:  Sort by  
Post new topic Reply to topic  [ 7 posts ] 

All times are UTC + 3 hours


Who is online

Users browsing this forum: No registered users and 1 guest


You cannot post new topics in this forum
You cannot reply to topics in this forum
You cannot edit your posts in this forum
You cannot delete your posts in this forum
You cannot post attachments in this forum

Search for:
Яндекс.Метрика
Powered by phpBB © 2000, 2002, 2005, 2007 phpBB Group