\m/ 80's metal \m/

Информационно-аналитический форум "80 см пыли" (In Search We Trust) "У нас никто никуда не спешит"
Me For You - http://me-4u.com
It is currently 21 May 2019

All times are UTC + 3 hours

Spoiler
Chat - temporary registration for foreign users (please leave your application here)







Post new topic Reply to topic  [ 14 posts ] 
Author Message
 
PostPosted: 13 Nov 2010 
Анатолий
User avatar
Joined: 18 Oct 2008
Posts: 3449
Lоcаtion: Армавир
Age: 41
Name: Анатолий
Deathrow - "Satan's Gift"/"Riders of Doom" - 1986

Image

Lineup:
Milo - vocals, bass
Sven Flügge - guitar
Thomas Priebe - guitar
Markus Hahn - drums

1. Winds of Death - 01:24
2. Satan's Gift - 04:13
3. Riders of Doom - 05:12
4. Hell's Ascent - 05:57
5. Spider Attack - 05:58
6. Slaughtered - 04:07
7. Violent Omen - 04:49
8. Dark Tales - 04:06
9. Samhain - 06:25

Total playing time 42:11

http://www.megaupload.com/?d=AVWC8QGA

"Riders of Doom" - From the bootleg CDR.

Все бгагодарности Леониду ( metaleonid )

log
Exact Audio Copy V0.99 prebeta 5 from 4. May 2009

EAC extraction logfile from 27. October 2010, 20:09

Deathrow / Riders Of Doom

Used drive : PLEXTOR DVDR PX-760A Adapter: 1 ID: 0

Read mode : Secure
Utilize accurate stream : Yes
Defeat audio cache : Yes
Make use of C2 pointers : Yes

Read offset correction : 30
Overread into Lead-In and Lead-Out : Yes
Fill up missing offset samples with silence : Yes
Delete leading and trailing silent blocks : No
Null samples used in CRC calculations : Yes
Used interface : Installed external ASPI interface

Used output format : Internal WAV Routines
Sample format : 44.100 Hz; 16 Bit; Stereo


TOC of the extracted CD

Track | Start | Length | Start sector | End sector
---------------------------------------------------------
1 | 0:00.00 | 5:33.15 | 0 | 24989
2 | 5:33.15 | 4:47.07 | 24990 | 46521
3 | 10:20.22 | 4:00.46 | 46522 | 64567
4 | 14:20.68 | 3:56.67 | 64568 | 82334
5 | 18:17.60 | 3:55.11 | 82335 | 99970
6 | 22:12.71 | 4:21.52 | 99971 | 119597
7 | 26:34.48 | 5:45.40 | 119598 | 145512
8 | 32:20.13 | 6:22.44 | 145513 | 174206


Range status and errors

Selected range

Filename N:\ToFLAC\Deathrow\Riders Of Doom\Deathrow - Riders Of Doom.wav

Peak level 100.0 %
Range quality 100.0 %
Copy CRC 007214BE
Copy OK

No errors occurred

End of status report


cue
REM GENRE "Thrash Metal"
REM DATE 1986
REM DISCID 6A091208
REM COMMENT "ExactAudioCopy v0.99pb5"
REM COMMENT "Split up <<Satan's Gift>> into intro <<Winds Of Death>> and <<Satan's Gift>>. Not aligned."
PERFORMER "Deathrow"
TITLE "Riders Of Doom"
FILE "01. Winds Of Death.wav" WAVE
TRACK 01 AUDIO
TITLE "Winds Of Death"
PERFORMER "Deathrow"
INDEX 01 00:00:00
FILE "02. Satan's Gift.wav" WAVE
TRACK 02 AUDIO
TITLE "Satan's Gift"
PERFORMER "Deathrow"
INDEX 01 00:00:00
FILE "03. Riders Of Doom.wav" WAVE
TRACK 03 AUDIO
TITLE "Riders Of Doom"
PERFORMER "Deathrow"
INDEX 00 00:00:00
INDEX 01 00:01:74
FILE "04. Hell's Ascent.wav" WAVE
TRACK 04 AUDIO
TITLE "Hell's Ascent"
PERFORMER "Deathrow"
INDEX 00 00:00:00
INDEX 01 00:01:74
FILE "05. Spider Attack.wav" WAVE
TRACK 05 AUDIO
TITLE "Spider Attack"
PERFORMER "Deathrow"
INDEX 00 00:00:00
INDEX 01 00:01:74
FILE "06. Slaughtered.wav" WAVE
TRACK 06 AUDIO
TITLE "Slaughtered"
PERFORMER "Deathrow"
INDEX 00 00:00:00
INDEX 01 00:01:74
FILE "07. Violent Omen.wav" WAVE
TRACK 07 AUDIO
TITLE "Violent Omen"
PERFORMER "Deathrow"
INDEX 00 00:00:00
INDEX 01 00:01:74
FILE "08. Dark Tales.wav" WAVE
TRACK 08 AUDIO
TITLE "Dark Tales"
PERFORMER "Deathrow"
INDEX 00 00:00:00
INDEX 01 00:01:74
FILE "09. Samhain.wav" WAVE
TRACK 09 AUDIO
TITLE "Samhain"
PERFORMER "Deathrow"
INDEX 00 00:00:00
INDEX 01 00:01:74


Last edited by Privateer on 14 Nov 2010, edited 1 time in total.

Top
 Profile E-mail  
 
 
PostPosted: 13 Nov 2010 
Хиппей (support team)
User avatar
Joined: 30 Jul 2007
Posts: 112583
Lоcаtion: Киев (Kyiv, UA)
Age: 45
Name: Andrey
Спасибо всем! :thanx:

А в чём прикол этих изданий? :vic:

http://metal-archives.com/release.php?id=4315 :oops:

_________________


Top
 Profile E-mail  
 
 
PostPosted: 13 Nov 2010 
5-speed satisfactor
User avatar
Joined: 16 Feb 2009
Posts: 3728
Lоcаtion: New York, USA
Age: 41
Name: Leonid
1ая ссылка мертва. Перезалью.

_________________
Death rules! Metal to all who oppose!


Top
 Profile  
 
 
PostPosted: 14 Nov 2010 
Power Metal Maniac
User avatar
Joined: 09 Aug 2008
Posts: 6703
Lоcаtion: Москва
Age: 41
Name: Егор
У меня есть CD c переизданием c демкой "Samhain" в качестве бонуса.

_________________
Long Live Metal!


Top
 Profile  
 
 
PostPosted: 14 Nov 2010 
Хиппей (support team)
User avatar
Joined: 30 Jul 2007
Posts: 112583
Lоcаtion: Киев (Kyiv, UA)
Age: 45
Name: Andrey
Зеркальцо: MultiUp l Narod

_________________


Top
 Profile E-mail  
 
 
PostPosted: 14 Nov 2010 
Анатолий
User avatar
Joined: 18 Oct 2008
Posts: 3449
Lоcаtion: Армавир
Age: 41
Name: Анатолий
Этот пост задумывался как возможность сравнить разные источники рипов. Были вопросы к композиции "Violent Omen". На ней был провал. На переиздании его несколько подкорретировали. Было интересно узнать так было на всех винилах или нет.


Top
 Profile E-mail  
 
 
PostPosted: 14 Nov 2010 
Хиппей (support team)
User avatar
Joined: 30 Jul 2007
Posts: 112583
Lоcаtion: Киев (Kyiv, UA)
Age: 45
Name: Andrey
Тьху, то есть, здесь рип с винилов (перезаписанных давно на сдр)? :starz:

зы. И если что, первая ссылка работала вчера, хоть вы её и удалили из топика... :bore: Сейчас, естественно, там пусто (на Меге). Сам я чет не успел скачать, да и ладно.

Ббрр, неужели так трудно в первом сообщении указывать больше инфы? :vic: А то пока до сути докопаешься, куча времени уходит.

_________________


Top
 Profile E-mail  
 
 
PostPosted: 14 Nov 2010 
Анатолий
User avatar
Joined: 18 Oct 2008
Posts: 3449
Lоcаtion: Армавир
Age: 41
Name: Анатолий
Scatterbrain

А в первом сообщении и говорилось о CD-R'ах... :pardon:


Top
 Profile E-mail  
 
 
PostPosted: 14 Nov 2010 
Хиппей (support team)
User avatar
Joined: 30 Jul 2007
Posts: 112583
Lоcаtion: Киев (Kyiv, UA)
Age: 45
Name: Andrey
А едрить же. А на CDR откуда запись шла - с винила или мастер-ленты? :fingal:

_________________


Top
 Profile E-mail  
 
 
PostPosted: 14 Nov 2010 
Анатолий
User avatar
Joined: 18 Oct 2008
Posts: 3449
Lоcаtion: Армавир
Age: 41
Name: Анатолий
Scatterbrain

Андрий... В данном случае мы имеем дело с винильными опусами ( потому как альбом ранее на CD официально не издавался ). В первом посте указывалось на источники... личный рип и бутлежный.


Top
 Profile E-mail  
 
 
PostPosted: 14 Nov 2010 
Хиппей (support team)
User avatar
Joined: 30 Jul 2007
Posts: 112583
Lоcаtion: Киев (Kyiv, UA)
Age: 45
Name: Andrey
О! Наконец-то, спасибо, Толя... :dance:

Image

Короче, я так понял, рип именно с такого вот винила http://cgi.ebay.com/DEATHROW-Satans-Gif ... 0690404807

А шо тогда вчера речь шла о втором рипе? Да и куй от него в архивчике осталсо :oops:

cue
REM GENRE "Thrash Metal"
REM DATE 1986
REM DISCID 6A091208
REM COMMENT "ExactAudioCopy v0.99pb5"
PERFORMER "Deathrow"
TITLE "Riders Of Doom"
FILE "Deathrow - Riders Of Doom.wav" WAVE
TRACK 01 AUDIO
TITLE "Satan's Gift"
PERFORMER "Deathrow"
INDEX 01 00:00:00
TRACK 02 AUDIO
TITLE "Riders Of Doom"
PERFORMER "Deathrow"
INDEX 00 05:31:16
INDEX 01 05:33:15
TRACK 03 AUDIO
TITLE "Hell's Ascent"
PERFORMER "Deathrow"
INDEX 00 10:18:23
INDEX 01 10:20:22
TRACK 04 AUDIO
TITLE "Spider Attack"
PERFORMER "Deathrow"
INDEX 00 14:18:69
INDEX 01 14:20:68
TRACK 05 AUDIO
TITLE "Slaughtered"
PERFORMER "Deathrow"
INDEX 00 18:15:61
INDEX 01 18:17:60
TRACK 06 AUDIO
TITLE "Violent Omen"
PERFORMER "Deathrow"
INDEX 00 22:10:72
INDEX 01 22:12:71
TRACK 07 AUDIO
TITLE "Dark Tales"
PERFORMER "Deathrow"
INDEX 00 26:32:49
INDEX 01 26:34:48
TRACK 08 AUDIO
TITLE "Samhain"
PERFORMER "Deathrow"
INDEX 00 32:18:14
INDEX 01 32:20:13

_________________


Top
 Profile E-mail  
 
 
PostPosted: 15 Nov 2010 
5-speed satisfactor
User avatar
Joined: 16 Feb 2009
Posts: 3728
Lоcаtion: New York, USA
Age: 41
Name: Leonid
Я перезалью. Там просто с аффторскими правами небольшая проблема вышла.

_________________
Death rules! Metal to all who oppose!


Top
 Profile  
 
 
PostPosted: 27 Nov 2010 
Хиппей (support team)
User avatar
Joined: 30 Jul 2007
Posts: 112583
Lоcаtion: Киев (Kyiv, UA)
Age: 45
Name: Andrey
metaleonid wrote:
с аффторскими правами небольшая проблема вышла

.... подробности можно узнать? Хотя бы в личку... :fingal: ...

_________________


Top
 Profile E-mail  
 
 
PostPosted: 08 Apr 2015 
\m/ 80 см сала \m/
User avatar
Joined: 12 Mar 2012
Posts: 2590
Age: 26
Name: Nick
Продолжим тему славных немецко-фашистских товарищей :true:
Рип, предположительно, с бразильского бутлега, "лимитированного" в 500 копий. Представляет собой довольно неплохую оцифровку с винила, щелчки местами присутствуют.
DEATHROW [1986] [CD-Bootleg] Satan's Gift [EAC-FLAC] by speedica [MeTaLMaDNeSS.TeaM].rar

Итого, дебютный альбом у нас имеется в виде двух винильных бутлегов (не считая оцифровок от частных лиц):
- Бутлег metaleonid (viewtopic.php?p=112526#p112526). Звучит довольно суховато, скорость воспроизведения ускорена.
- Бутлег бразильский (в энтом посту). По звуку, имхо, лучше Леонидового бутлега (напоминает оцифровку paranthropus, но не такая звонкая), скорость воспроизведения нормальная.

_________________
1990 AUROPHON BRAINSTORM (Germany) - lossless
1994 MAUSOLEUM CLASSIX (Belgium-Germany) - lossless
1998 VA - GRIM HARVEST - Complete Metal Massacre Volumes I-XII


Top
 Profile  
 
Display posts from previous:  Sort by  
Post new topic Reply to topic  [ 14 posts ] 

All times are UTC + 3 hours


Who is online

Users browsing this forum: No registered users and 1 guest


You cannot post new topics in this forum
You cannot reply to topics in this forum
You cannot edit your posts in this forum
You cannot delete your posts in this forum
You cannot post attachments in this forum

Search for:
Яндекс.Метрика
Powered by phpBB © 2000, 2002, 2005, 2007 phpBB Group