\m/ 80's metal \m/

Информационно-аналитический форум "80 см пыли" (In Search We Trust) "У нас никто никуда не спешит"
Me For You - http://me-4u.com
It is currently 22 Aug 2019

All times are UTC + 3 hours

Spoiler
Chat - temporary registration for foreign users (please leave your application here)







Post new topic Reply to topic  [ 8 posts ] 
Author Message
 
PostPosted: 20 Oct 2010 
Я набрал 1000 сообщений!
User avatar
Joined: 25 Dec 2008
Posts: 1545
Age: 43
Name: Павел
Divine Regale - Horizons(EP)
Genre:Progressive Metal
Year:1994
Country:USA
Format:APE+log+cue+scans
Size:193 Mb


Image
Image
log
Отчёт EAC об извлечении, выполненном 20. октября 2010, 17:16 для диска:
Divine Regale / Horizons

Дисковод: TSSTcorpCD/DVDW SH-S182D Adapter: 0 ID: 0
Режим чтения: Достоверный (C2: нет, Точный поток: да, Отключение кэша: да)
Коррекция смещения при чтении: 6
Способность читать области Lead-in и Lead-out : Нет

Выходной формат: Внутренние WAV-операции
44.100 Гц; 16 бит; стерео

Другие параметры:
Заполнение пропущенных сэмплов тишиной : Да
Удаление блоков с тишиной в начале и конце : Нет
Установленный внешний ASPI-интерфейс


Характеристики диапазона извлечения и сообщения об ошибках
Выбранный диапазон
Имя файла C:\Program Files\загрузки\Новая папка\Divine Regale - Horizons.wav

Пиковый уровень 100.0 %
Качество диапазона 100.0 %
CRC 2096475E
Копирование... OK

Ошибок не произошло

Конец отчёта

cue
REM DISCID 36066805
REM COMMENT "ExactAudioCopy v0.95b4"
PERFORMER "Divine Regale"
TITLE "Horizons"
FILE "Divine Regale - Horizons.wav" WAVE
TRACK 01 AUDIO
TITLE "Dawn"
PERFORMER "Divine Regale"
INDEX 01 00:00:00
TRACK 02 AUDIO
TITLE "Horizon"
PERFORMER "Divine Regale"
INDEX 01 01:05:25
TRACK 03 AUDIO
TITLE "Underworld"
PERFORMER "Divine Regale"
INDEX 00 06:27:30
INDEX 01 06:28:48
TRACK 04 AUDIO
TITLE "Missing"
PERFORMER "Divine Regale"
INDEX 01 12:41:73
TRACK 05 AUDIO
TITLE "Fear the Storm"
PERFORMER "Divine Regale"
INDEX 01 18:45:58


Tracklist:
1.Dawn 01:05
2.Horizon 05:20
3.Underworld 06:11
4.Missing 06:01
5.Fear the Storm 08:33

Великолепный мелодичный прог-метал в лучших штатовских традициях.
Недостаток один-это лишь миник.Адресуется Олегу и другим любителям хорошего прог-металла.


Divine Regale - Horizons.rar


Top
 Profile  
 
 
PostPosted: 20 Oct 2010 
Прокъмитолист
User avatar
Joined: 12 Aug 2007
Posts: 6590
Lоcаtion: Санктъ-Петербуркъ
Age: 51
Name: Олекъ
спасибо, Паша! :thanx: непременно утащу в коллекцию :true:

_________________
прокъметол - это музыко, от которово есть прок (ы)


Top
 Profile  
 
 
PostPosted: 21 Oct 2010 
Power Metal Maniac
User avatar
Joined: 09 Aug 2008
Posts: 6824
Lоcаtion: Москва
Age: 41
Name: Егор
не забыть скачать :thanx:

_________________
Long Live Metal!


Top
 Profile  
 
 
PostPosted: 16 Mar 2011 
Пионэръ
User avatar
Joined: 20 Jun 2010
Posts: 40
Lоcаtion: Москоw-Сити
Name: Димон
наслышан. малоизвестная, но талантливая группа :meloman:

_________________
)†/_'†º¨ł


Top
 Profile  
 
 
PostPosted: 23 Aug 2011 
Хиппей (support team)
User avatar
Joined: 30 Jul 2007
Posts: 114037
Lоcаtion: Киев (Kyiv, UA)
Age: 46
Name: Andrey
Ой... :oops:

Quote:
Закончился срок хранения файла. Файл удален с сервиса.

Quote:
Скачан последний раз:18 июн 2011 17:52

Реапните кто-то, плиз, я только подобрался к данной теме... :fingal:

_________________


Top
 Profile E-mail  
 
 
PostPosted: 23 Aug 2011 
Хиппей (support team)
User avatar
Joined: 30 Jul 2007
Posts: 114037
Lоcаtion: Киев (Kyiv, UA)
Age: 46
Name: Andrey
Файл есть на трекере http://rutracker.org/forum/viewtopic.php?t=3479573
Но оттуда в западло качать :scratch:

_________________


Top
 Profile E-mail  
 
 
PostPosted: 23 Aug 2011 
Я набрал 1000 сообщений!
User avatar
Joined: 25 Dec 2008
Posts: 1545
Age: 43
Name: Павел
Scatterbrain wrote:
Ой...

Вот сцуко! Напоминалки от Народа перестали приходить! :fingal:


Top
 Profile  
 
 
PostPosted: 24 Aug 2011 
Хиппей (support team)
User avatar
Joined: 30 Jul 2007
Posts: 114037
Lоcаtion: Киев (Kyiv, UA)
Age: 46
Name: Andrey
hawkhunter wrote:
Напоминалки от Народа перестали приходить! :fingal:

Уже два раза им отписал :fingal:

_________________


Top
 Profile E-mail  
 
Display posts from previous:  Sort by  
Post new topic Reply to topic  [ 8 posts ] 

All times are UTC + 3 hours


Who is online

Users browsing this forum: No registered users and 1 guest


You cannot post new topics in this forum
You cannot reply to topics in this forum
You cannot edit your posts in this forum
You cannot delete your posts in this forum
You cannot post attachments in this forum

Search for:
Яндекс.Метрика
cron
Powered by phpBB © 2000, 2002, 2005, 2007 phpBB Group