\m/ 80's metal \m/

Информационно-аналитический форум "80 см пыли" (In Search We Trust) "У нас никто никуда не спешит"
Me For You - http://me-4u.com
It is currently 25 May 2019

All times are UTC + 3 hours

Spoiler
Chat - temporary registration for foreign users (please leave your application here)







Post new topic Reply to topic  [ 5 posts ] 
Author Message
 
PostPosted: 17 Oct 2010 
ыыыы
User avatar
Joined: 17 May 2009
Posts: 952
Lоcаtion: Пушкино, МО
Age: 40
Name: Дмитрий
Image


Жанр: Hard Rock
Происхождение исполнителя: США
Год издания: 1983
Год издания данного носителя: 1986
Страна-производитель носителя: Япония
Аудио кодек: FLAC
Тип рипа: image+.cue
Битрейт аудио: lossless
Продолжительность: 36:33
Рип: Собственный
Лейбл: ELEKTRA/WARNER-PIONEER
Каталоговый номер: 32XD-484
Матрица: 32XD-484 11A3 +++++ (SONY)

Треклист:
1. Breaking the Chains 03:51
2. In the Middle 03:44
3. Felony 03:08
4. I Can't See You 03:12
5. Live to Rock (Rock to Live) 03:39
6. Nightrider 03:13
7. Seven Thunders 03:55
8. Young Girls 03:14
9. Stick to your Guns 03:27
10. Paris is Burning 05:10

"Куй"
REM GENRE "Hard Rock"
REM DATE 1983
REM DISCID 9008910A
REM COMMENT "ExactAudioCopy v0.99pb5"
PERFORMER "Dokken"
TITLE "Breaking The Chains [32XD-484]"
FILE "Dokken - Breaking The Chains [32XD-484].flac" WAVE
TRACK 01 AUDIO
TITLE "Breaking The Chains"
PERFORMER "Dokken"
INDEX 01 00:00:00
TRACK 02 AUDIO
TITLE "In The Middle"
PERFORMER "Dokken"
INDEX 01 03:51:07
TRACK 03 AUDIO
TITLE "Felony"
PERFORMER "Dokken"
INDEX 01 07:34:52
TRACK 04 AUDIO
TITLE "I Can't See You"
PERFORMER "Dokken"
INDEX 01 10:42:60
TRACK 05 AUDIO
TITLE "Live To Rock (Rock To Live)"
PERFORMER "Dokken"
INDEX 01 13:54:50
TRACK 06 AUDIO
TITLE "Nightrider"
PERFORMER "Dokken"
INDEX 01 17:33:57
TRACK 07 AUDIO
TITLE "Seven Thunders"
PERFORMER "Dokken"
INDEX 01 20:47:17
TRACK 08 AUDIO
TITLE "Young Girls"
PERFORMER "Dokken"
INDEX 01 24:42:32
TRACK 09 AUDIO
TITLE "Stick To Your Guns"
PERFORMER "Dokken"
INDEX 01 27:56:60
TRACK 10 AUDIO
TITLE "Paris Is Burning (Live in Berlin)"
PERFORMER "Dokken"
INDEX 00 31:21:50
INDEX 01 31:23:30


"Лог"
Exact Audio Copy V0.99 prebeta 5 from 4. May 2009

Отчёт EAC об извлечении, выполненном 15. октября 2010, 10:09

Dokken / Breaking The Chains [32XD-484]

Дисковод: Optiarc DVD RW AD-7200A Adapter: 1 ID: 0

Режим чтения : Достоверность
Использование точного потока : Да
Отключение кэша аудио : Да
Использование указателей C2 : Нет

Коррекция смещения при чтении : 48
Способность читать области Lead-in и Lead-out : Нет
Заполнение пропущенных сэмплов тишиной : Да
Удаление блоков с тишиной в начале и конце : Нет
При вычислениях CRC использовались нулевые сэмплы : Да
Интерфейс : Встроенный Win32-интерфейс для Win NT/2000

Выходной формат : Пользовательский кодировщик
Выбранный битрейт : 128 kBit/s
Качество : Высокий
Добавление ID3-тэга : Нет
Утилита сжатия : C:\Program Files\Exact Audio Copy\Flac\flac.exe
Дополнительные параметры : -8 -V -T "artist=%a" -T "title=%t" -T "album=%g" -T "date=%y" -T "tracknumber=%n" -T "genre=%m" -T "comment=EAC


TOC извлечённого CD

Трек | Старт | Длительность | Начальный сектор | Конечный сектор
---------------------------------------------------------------------
1 | 0:00.00 | 3:51.07 | 0 | 17331
2 | 3:51.07 | 3:43.45 | 17332 | 34101
3 | 7:34.52 | 3:08.08 | 34102 | 48209
4 | 10:42.60 | 3:11.65 | 48210 | 62599
5 | 13:54.50 | 3:39.07 | 62600 | 79031
6 | 17:33.57 | 3:13.35 | 79032 | 93541
7 | 20:47.17 | 3:55.15 | 93542 | 111181
8 | 24:42.32 | 3:14.28 | 111182 | 125759
9 | 27:56.60 | 3:26.45 | 125760 | 141254
10 | 31:23.30 | 5:09.52 | 141255 | 164481


Характеристики диапазона извлечения и сообщения об ошибках

Выбранный диапазон

Имя файла Y:\Музыка\Dokken\1983 Breaking The Chains\Dokken - Breaking The Chains [32XD-484].wav

Пиковый уровень 100.0 %
Качество диапазона 100.0 %
CRC копии B503C464
Копирование... OK

Ошибок не произошло


AccurateRip: сводка

Трек 1 нет в базе данных
Трек 2 нет в базе данных
Трек 3 нет в базе данных
Трек 4 нет в базе данных
Трек 5 нет в базе данных
Трек 6 нет в базе данных
Трек 7 нет в базе данных
Трек 8 нет в базе данных
Трек 9 нет в базе данных
Трек 10 нет в базе данных

Ни одного трека нет в базе AccurateRip

Конец отчёта


Состав:
Don Dokken: Vocals/Guitar
George Lynch: Guitar
Juan Croucier: Bass/Vocals
Mick Brown: Drums

32XD-484

_________________
Витасу до Даймонда как Алсу до Руссоса | При переразмещении - спрашивать разрешение!!


Top
 Profile  
 
 
PostPosted: 18 Oct 2010 
Gretzky must die
User avatar
Joined: 16 Sep 2010
Posts: 265
Lоcаtion: Московская обл.
Name: Андрей
Ух ! Огонь ! Glam-Огонь ! :meloman: :dance: :thanx:


Top
 Profile  
 
 
PostPosted: 18 Oct 2010 
Персональный статус
User avatar
Joined: 11 Apr 2010
Posts: 201
Lоcаtion: Москва (Moskow)
Age: 35
Name: Илья
iezuit

Great thanks!!!!!!! :thanx: :thanx: :thanx: :dance:

_________________
Space Aliens Invasion... (our benefactors)

— "Ваш мир для меня бесконечно пуст, ваши идеалы смешны, а ваша демократия — это только власть интриганов. И тогда я понял, что роль слуги человека не удовлетворяет меня, поэтому я решил взять власть в свои руки, чтобы человечество осознало, как оно просчиталось, создав покорную себе куклу"... нейролог и кибернетик Том Новак 1978


Top
 Profile E-mail  
 
 
PostPosted: 18 Oct 2010 
Персональный статус
Joined: 14 May 2010
Posts: 236
Age: 37
Name: Денис
Спасибо, Дмитрий! Отличный альбом.


Top
 Profile  
 
 
PostPosted: 08 Jul 2012 
Хиппей (support team)
User avatar
Joined: 30 Jul 2007
Posts: 112772
Lоcаtion: Киев (Kyiv, UA)
Age: 45
Name: Andrey
:thanx:

mirror: MultiUp l Narod

_________________


Top
 Profile E-mail  
 
Display posts from previous:  Sort by  
Post new topic Reply to topic  [ 5 posts ] 

All times are UTC + 3 hours


Who is online

Users browsing this forum: No registered users and 1 guest


You cannot post new topics in this forum
You cannot reply to topics in this forum
You cannot edit your posts in this forum
You cannot delete your posts in this forum
You cannot post attachments in this forum

Search for:
Яндекс.Метрика
Powered by phpBB © 2000, 2002, 2005, 2007 phpBB Group