\m/ 80's metal \m/

Информационно-аналитический форум "80 см пыли" (In Search We Trust) "У нас никто никуда не спешит"
Me For You - http://me-4u.com
It is currently 27 May 2019

All times are UTC + 3 hours

Spoiler
Chat - temporary registration for foreign users (please leave your application here)







Post new topic Reply to topic  [ 3 posts ] 
Author Message
 
PostPosted: 27 Aug 2010 
Old Time Rock`n`Roll
User avatar
Joined: 23 Jun 2008
Posts: 3429
Lоcаtion: г.Ульяновск
Age: 40
Name: Константин
The Doobie Brothers – Brotherhood (1991)

Image

Year: 1991
Style: Hard Rock, Melodic/Southern/Rock`n`Roll
Country: USA
Format: FLAC + log + cue + scans & mp3-320
Size: 366 Mb + 124 Mb

Tracklist
01.Something You Said (4:48)
02.Is Love Enough (4:40)
03.Dangerous (5:06)
04.Our Love (4:32)
05.Divided Highway (3:50)
06.Under the Spell (4:23)
07.Excited (5:02)
08.This Train I'm On (3:55)
09.Showdown (4:20)
10.Rollin' On (4:15)

TPT – 45:07

Line-Up
Tom Johnston - guitars, vocals
Patrick Simmons - guitars, vocals
Tiran Porter - bass, vocals
John Hartman - drums
Michael Hossack - drums, percussion

Additional Players:
Steve Canali - slide guitar
Jimi Fox - percussion
Dale Ockerman - keyboards
Richard Bryant - background vocals
Vicki Randle - background vocals

Album Credits:
Produced: Rodney Mills
Engineered: Devon Rietveld & Rodney Mills
Mixed: Chris Lord-Alge & Rodney Mills
Mastered: Bob Ludvig

Album Chart Position
USA # 82


Log
EAC extraction logfile from 20. July 2006, 17:36 for CD
The Doobie Brothers / Brotherhood

Used drive : PLEXTOR CD-R PREMIUM Adapter: 1 ID: 1
Read mode : Secure with NO C2, accurate stream, disable cache
Read offset correction : 30
Overread into Lead-In and Lead-Out : Yes

Used output format : Internal WAV Routines
44.100 Hz; 16 Bit; Stereo

Other options :
Fill up missing offset samples with silence : Yes
Delete leading and trailing silent blocks : No
Installed external ASPI interface


Range status and errors
Selected range
Filename E:\Audio\Verified Image Rips\The Doobie Brothers - 1991 - Brotherhood\The Doobie Brothers - Brotherhood.wav

Peak level 87.3 %
Range quality 100.0 %
CRC 6C1E0DC6
Copy OK

No errors occured

End of status report


Cue
REM GENRE Rock
REM DATE 1991
REM DISCID 970A920A
REM COMMENT "ExactAudioCopy v0.95b3"
PERFORMER "The Doobie Brothers"
TITLE "Brotherhood"
FILE "The Doobie Brothers - Brotherhood.wav" WAVE
TRACK 01 AUDIO
TITLE "Something You Said"
PERFORMER "The Doobie Brothers"
ISRC 000000000000
FLAGS DCP
INDEX 01 00:00:00
TRACK 02 AUDIO
TITLE "Is Love Enough"
PERFORMER "The Doobie Brothers"
ISRC 000000000000
FLAGS DCP
INDEX 01 04:52:02
TRACK 03 AUDIO
TITLE "Dangerous"
PERFORMER "The Doobie Brothers"
ISRC 000000000000
FLAGS DCP
INDEX 01 09:33:60
TRACK 04 AUDIO
TITLE "Our Love"
PERFORMER "The Doobie Brothers"
ISRC 000000000000
FLAGS DCP
INDEX 01 14:40:52
TRACK 05 AUDIO
TITLE "Divided Highway"
PERFORMER "The Doobie Brothers"
ISRC 000000000000
FLAGS DCP
INDEX 01 19:13:42
TRACK 06 AUDIO
TITLE "Under The Spell"
PERFORMER "The Doobie Brothers"
ISRC 000000000000
FLAGS DCP
INDEX 01 23:04:65
TRACK 07 AUDIO
TITLE "Excited"
PERFORMER "The Doobie Brothers"
ISRC 000000000000
FLAGS DCP
INDEX 01 27:30:18
TRACK 08 AUDIO
TITLE "This Train I'm On"
PERFORMER "The Doobie Brothers"
ISRC 000000000000
FLAGS DCP
INDEX 01 32:35:55
TRACK 09 AUDIO
TITLE "Showdown"
PERFORMER "The Doobie Brothers"
ISRC 000000000000
FLAGS DCP
INDEX 01 36:33:10
TRACK 10 AUDIO
TITLE "Rollin' On"
PERFORMER "The Doobie Brothers"
ISRC 000000000000
FLAGS DCP
INDEX 01 40:53:26


FLAC
megaupload-FLAC
narod-FLAC

mp3-320
megaupload-320

Практически самый хард-роковый альбом софт-роковой калифорнийской команды, саунд представляет собой смесь Bad Company – ZZ Top – Lynyrd Skynyrd – Jeff Healey Band – Foreigner – Magnum, хорошая с примесью байкерства рок-музыка. Трек Dangerous звучит в фильме Невозмутимый (Stone Cold),1991.
Релиз Hqshare, рип от JeanLucPicard.

Image


Top
 Profile  
 
 
PostPosted: 29 Aug 2010 
Хиппей (support team)
User avatar
Joined: 30 Jul 2007
Posts: 112855
Lоcаtion: Киев (Kyiv, UA)
Age: 45
Name: Andrey
:thanx: Мо-то-ро-керррр!!! :true:

_________________


Top
 Profile E-mail  
 
 
PostPosted: 30 Jan 2011 
хард н хэвщик (support team)
User avatar
Joined: 02 Jun 2008
Posts: 16881
Lоcаtion: Н.Новгород
Age: 32
Name: Артем
:true:


Top
 Profile  
 
Display posts from previous:  Sort by  
Post new topic Reply to topic  [ 3 posts ] 

All times are UTC + 3 hours


Who is online

Users browsing this forum: No registered users and 2 guests


You cannot post new topics in this forum
You cannot reply to topics in this forum
You cannot edit your posts in this forum
You cannot delete your posts in this forum
You cannot post attachments in this forum

Search for:
Яндекс.Метрика
Powered by phpBB © 2000, 2002, 2005, 2007 phpBB Group