\m/ 80's metal \m/

Информационно-аналитический форум "80 см пыли" (In Search We Trust) "У нас никто никуда не спешит"
Me For You - http://me-4u.com
It is currently 23 May 2019

All times are UTC + 3 hours

Spoiler
Chat - temporary registration for foreign users (please leave your application here)







Post new topic Reply to topic  [ 24 posts ]  Go to page Previous  1, 2
Author Message
 
PostPosted: 05 May 2010 
мелосмертхстер
User avatar
Joined: 11 Jul 2008
Posts: 1058
Lоcаtion: (Әлмәт/Самара)
Age: 42
Name: Rus†Ⓐm
Deliverance (UK) - Ultimate Revenge 1993 [flac]

Image
Image
Image
Image

Год: 1993
Стиль: Heavy Metal
Страна: United Kingdom
Формат: Flac + Log + Cue
Размер: 385 mb

tau
Image


Master Daniels - vocals, percussion
Sin - guitar, backing vocals, keyboards, strings, horns
Kris Krowe - bass, vocals
Clive Cutie - drums

Трэклист:

1. The Devils Instrument (Succubus, Pt. 1-3)
2. Turn Me to Stone
3. Devil Friendship
4. Deliverance
5. Bell, Book & Scandal
6. Runaway
7. Troopers of Death
8. Alive Forever
9. RIP
10. 21 Steps to Hell
11. The Evil
12. Vision
13. Stealer of Dreams
14. The Church of Deliverance

log
EAC extraction logfile from 5. May 2010, 15:22 for CD
Deliverance / Ultimate Revenge

Used drive : TSSTcorpCDDVDW SH-S203B Adapter: 1 ID: 0
Read mode : Secure with NO C2, accurate stream, disable cache
Read offset correction : 6
Overread into Lead-In and Lead-Out : No

Used output format : Internal WAV Routines
44.100 Hz; 16 Bit; Stereo

Other options :
Fill up missing offset samples with silence : Yes
Delete leading and trailing silent blocks : No
Installed external ASPI interface


Range status and errors
Selected range
Filename C:\Documents and Settings\Администратор\Рабочий стол\Deliverance - Ultimate Revenge.wav

Peak level 99.4 %
Range quality 100.0 %
CRC 2DA49FE8
Copy OK

No errors occured

End of status report


cue
REM DATE 1993
REM DISCID B60F380E
REM COMMENT "ExactAudioCopy v0.95b4"
PERFORMER "Deliverance"
TITLE "Ultimate Revenge"
FILE "Deliverance - Ultimate Revenge.flac" WAVE
TRACK 01 AUDIO
TITLE "The Devils Instrument (Succubus, Pt. 1-3)"
PERFORMER "Deliverance"
INDEX 00 00:00:00
INDEX 01 00:00:32
TRACK 02 AUDIO
TITLE "Turn Me to Stone"
PERFORMER "Deliverance"
INDEX 00 13:41:40
INDEX 01 13:59:27
TRACK 03 AUDIO
TITLE "Devil Friendship"
PERFORMER "Deliverance"
INDEX 00 17:13:70
INDEX 01 17:16:00
TRACK 04 AUDIO
TITLE "Deliverance"
PERFORMER "Deliverance"
INDEX 00 20:13:45
INDEX 01 20:21:47
TRACK 05 AUDIO
TITLE "Bell Book & Scandal"
PERFORMER "Deliverance"
INDEX 00 24:45:55
INDEX 01 24:54:55
TRACK 06 AUDIO
TITLE "Runaway"
PERFORMER "Deliverance"
INDEX 00 29:14:12
INDEX 01 29:17:57
TRACK 07 AUDIO
TITLE "Troopers of Death"
PERFORMER "Deliverance"
INDEX 00 33:28:27
INDEX 01 33:38:65
TRACK 08 AUDIO
TITLE "Alive Forever"
PERFORMER "Deliverance"
INDEX 00 38:11:57
INDEX 01 38:15:70
TRACK 09 AUDIO
TITLE "RIP"
PERFORMER "Deliverance"
INDEX 00 41:16:12
INDEX 01 41:24:12
TRACK 10 AUDIO
TITLE "21 Steps to Hell"
PERFORMER "Deliverance"
INDEX 00 42:07:60
INDEX 01 42:12:17
TRACK 11 AUDIO
TITLE "The Evil"
PERFORMER "Deliverance"
INDEX 00 50:15:60
INDEX 01 50:19:07
TRACK 12 AUDIO
TITLE "Vision"
PERFORMER "Deliverance"
INDEX 00 55:28:00
INDEX 01 55:30:02
TRACK 13 AUDIO
TITLE "Stealer of Dreams"
PERFORMER "Deliverance"
INDEX 00 57:35:30
INDEX 01 57:38:47
TRACK 14 AUDIO
TITLE "The Church of Deliverance"
PERFORMER "Deliverance"
INDEX 00 61:42:07
INDEX 01 61:45:42


spectrum
Attachment:
spectrum.jpg
spectrum.jpg [ 312.79 KiB | Viewed 156 times ]


Speedy l Narod

_________________
Everytime I Die

Image


Last edited by bodomchild76 on 06 Jul 2010, edited 1 time in total.

Top
 Profile E-mail  
 
 
PostPosted: 09 Feb 2012 
Персональный статус
User avatar
Joined: 22 Oct 2011
Posts: 352
Lоcаtion: Moscow
Age: 60
Name: Серёжа
:thanx:


Top
 Profile E-mail  
 
 
PostPosted: 09 Feb 2012 
Генеральный thrasher
User avatar
Joined: 03 Oct 2008
Posts: 3705
Lоcаtion: Ханты-Мансийский АО
Age: 44
Name: Сергей
:thanx: :true:


Top
 Profile  
 
 
PostPosted: 09 Feb 2012 
Хиппей (support team)
User avatar
Joined: 30 Jul 2007
Posts: 112689
Lоcаtion: Киев (Kyiv, UA)
Age: 45
Name: Andrey
Олег, спасибо! :true:
Рустам, выздоравливай и не смей хандрить :esel:

mirror: в первом сообщении (see first post)

_________________


Top
 Profile E-mail  
 
 
PostPosted: 09 Feb 2012 
мелосмертхстер
User avatar
Joined: 11 Jul 2008
Posts: 1058
Lоcаtion: (Әлмәт/Самара)
Age: 42
Name: Rus†Ⓐm
спасибо :thanx:

_________________
Everytime I Die

Image


Top
 Profile E-mail  
 
Display posts from previous:  Sort by  
Post new topic Reply to topic  [ 24 posts ]  Go to page Previous  1, 2

All times are UTC + 3 hours


Who is online

Users browsing this forum: No registered users and 2 guests


You cannot post new topics in this forum
You cannot reply to topics in this forum
You cannot edit your posts in this forum
You cannot delete your posts in this forum
You cannot post attachments in this forum

Search for:
Яндекс.Метрика
Powered by phpBB © 2000, 2002, 2005, 2007 phpBB Group