\m/ 80's metal \m/

Информационно-аналитический форум "80 см пыли" (In Search We Trust) "У нас никто никуда не спешит"
Me For You - http://me-4u.com
It is currently 25 May 2019

All times are UTC + 3 hours

Spoiler
Chat - temporary registration for foreign users (please leave your application here)







Post new topic Reply to topic  [ 10 posts ] 
Author Message
 
PostPosted: 15 Apr 2010 
ыыыы
User avatar
Joined: 17 May 2009
Posts: 952
Lоcаtion: Пушкино, МО
Age: 40
Name: Дмитрий
Image


Жанр: Heavy Metal/Hard Rock
Происхождение исполнителя: США
Год издания: 1988
Год издания данного носителя: 1989
Страна-производитель носителя: Япония
Аудио кодек: FLAC
Тип рипа: image+.cue
Битрейт аудио: lossless
Продолжительность: 45:28+42:55
Рип: Собственный
Лейбл: ELECTRA/WARNER-PIONEER
Каталоговый номер: 36P2-2681~2
Матрица: 36P2-2681 P03 / 36P2-2681 P51 (DENON)

Треклист:

Disc 1
1. Unchain the Night 06:01
2. Tooth and Nail 03:21
3. Standing in the Shadows 04:37
4. Sleepless Nights 04:24
5. Dream Warriors 04:17
6. Kiss of Death 05:24
7. When Heaven Comes Down 03:54
8. Into the Fire 05:06
9. Mr. Scary 08:24

Disc 2

1. Heaven Sent 05:35
2. It's Not Love 06:14
3. Alone Again 05:37
4. Just Got Lucky 05:15
5. Breaking the Chains 04:12
6. In My Dreams 05:17
7. Turn on the Action 05:40
8. Walk Away (studio) 05:04

"Куй"
REM GENRE "Hard Rock"
REM DATE 1988
REM DISCID 720AA709
REM COMMENT "ExactAudioCopy v0.99pb5"
PERFORMER "Dokken"
TITLE "Beast From The East (Disc1) [36P2-2681~2]"
FILE "Dokken - Beast From The East (Disc1) [36P2-2681~2].flac" WAVE
TRACK 01 AUDIO
TITLE "Unchain the Night"
PERFORMER "Dokken"
INDEX 01 00:00:00
TRACK 02 AUDIO
TITLE "Tooth And Nail"
PERFORMER "Dokken"
INDEX 01 06:01:32
TRACK 03 AUDIO
TITLE "Standing in the Shadows"
PERFORMER "Dokken"
INDEX 01 09:22:60
TRACK 04 AUDIO
TITLE "Sleepless Nights"
PERFORMER "Dokken"
INDEX 01 13:59:50
TRACK 05 AUDIO
TITLE "Dream Warriors"
PERFORMER "Dokken"
INDEX 01 18:23:20
TRACK 06 AUDIO
TITLE "Kiss of Death"
PERFORMER "Dokken"
INDEX 01 22:40:10
TRACK 07 AUDIO
TITLE "When Heaven Comes Down"
PERFORMER "Dokken"
INDEX 01 28:04:12
TRACK 08 AUDIO
TITLE "Into the Fire"
PERFORMER "Dokken"
INDEX 01 31:57:55
TRACK 09 AUDIO
TITLE "Mr. Scary"
PERFORMER "Dokken"
INDEX 01 37:04:00


"Куй1"
REM GENRE "Hard Rock"
REM DATE 1988
REM DISCID 5F0A0F08
REM COMMENT "ExactAudioCopy v0.99pb5"
PERFORMER "Dokken"
TITLE "Beast From The East (Disc 2) [36P2-2681~2]"
FILE "Dokken - Beast From The East (Disc 2) [36P2-2681~2].flac" WAVE
TRACK 01 AUDIO
TITLE "Heaven Sent"
PERFORMER "Dokken"
INDEX 01 00:00:00
TRACK 02 AUDIO
TITLE "It's Not Love"
PERFORMER "Dokken"
INDEX 01 05:35:37
TRACK 03 AUDIO
TITLE "Alone Again"
PERFORMER "Dokken"
INDEX 01 11:49:32
TRACK 04 AUDIO
TITLE "Just Got Lucky"
PERFORMER "Dokken"
INDEX 01 17:26:62
TRACK 05 AUDIO
TITLE "Breaking The Chains"
PERFORMER "Dokken"
INDEX 01 22:42:22
TRACK 06 AUDIO
TITLE "In My Dreams"
PERFORMER "Dokken"
INDEX 01 26:54:20
TRACK 07 AUDIO
TITLE "Turn On The Action"
PERFORMER "Dokken"
INDEX 01 32:11:47
TRACK 08 AUDIO
TITLE "Walk Away"
PERFORMER "Dokken"
INDEX 00 37:49:27
INDEX 01 37:51:32


"Лог"
Exact Audio Copy V0.99 prebeta 5 from 4. May 2009

EAC extraction logfile from 15. April 2010, 12:07

Dokken / Beast From The East (Disc1) [36P2-2681~2]

Used drive : Optiarc DVD RW AD-7200A Adapter: 0 ID: 0

Read mode : Secure
Utilize accurate stream : Yes
Defeat audio cache : Yes
Make use of C2 pointers : No

Read offset correction : 48
Overread into Lead-In and Lead-Out : No
Fill up missing offset samples with silence : Yes
Delete leading and trailing silent blocks : No
Null samples used in CRC calculations : Yes
Used interface : Native Win32 interface for Win NT & 2000

Used output format : User Defined Encoder
Selected bitrate : 128 kBit/s
Quality : High
Add ID3 tag : No
Command line compressor : C:\Program Files\Exact Audio Copy\Flac\flac.exe
Additional command line options : -8 -V -T "artist=%a" -T "title=%t" -T "album=%g" -T "date=%y" -T "tracknumber=%n" -T "genre=%m" -T "comment=EAC 0.9beta4 / FLAC 1.1.0 q6" %s


TOC of the extracted CD

Track | Start | Length | Start sector | End sector
---------------------------------------------------------
1 | 0:00.00 | 6:01.32 | 0 | 27106
2 | 6:01.32 | 3:21.28 | 27107 | 42209
3 | 9:22.60 | 4:36.65 | 42210 | 62974
4 | 13:59.50 | 4:23.45 | 62975 | 82744
5 | 18:23.20 | 4:16.65 | 82745 | 102009
6 | 22:40.10 | 5:24.02 | 102010 | 126311
7 | 28:04.12 | 3:53.43 | 126312 | 143829
8 | 31:57.55 | 5:06.20 | 143830 | 166799
9 | 37:04.00 | 8:23.42 | 166800 | 204566


Range status and errors

Selected range

Filename Y:\Музыка\Dokken\1988 Beast From The East\Dokken - Beast From The East (Disc1) [36P2-2681~2].wav

Peak level 100.0 %
Range quality 99.9 %
Copy CRC 50448A20
Copy OK

No errors occurred

End of status report


"Лог1"
Exact Audio Copy V0.99 prebeta 5 from 4. May 2009

EAC extraction logfile from 15. April 2010, 12:23

Dokken / Beast From The East (Disc 2) [36P2-2681~2]

Used drive : Optiarc DVD RW AD-7200A Adapter: 0 ID: 0

Read mode : Secure
Utilize accurate stream : Yes
Defeat audio cache : Yes
Make use of C2 pointers : No

Read offset correction : 48
Overread into Lead-In and Lead-Out : No
Fill up missing offset samples with silence : Yes
Delete leading and trailing silent blocks : No
Null samples used in CRC calculations : Yes
Used interface : Native Win32 interface for Win NT & 2000

Used output format : User Defined Encoder
Selected bitrate : 128 kBit/s
Quality : High
Add ID3 tag : No
Command line compressor : C:\Program Files\Exact Audio Copy\Flac\flac.exe
Additional command line options : -8 -V -T "artist=%a" -T "title=%t" -T "album=%g" -T "date=%y" -T "tracknumber=%n" -T "genre=%m" -T "comment=EAC 0.9beta4 / FLAC 1.1.0 q6" %s


TOC of the extracted CD

Track | Start | Length | Start sector | End sector
---------------------------------------------------------
1 | 0:00.00 | 5:35.37 | 0 | 25161
2 | 5:35.37 | 6:13.70 | 25162 | 53206
3 | 11:49.32 | 5:37.30 | 53207 | 78511
4 | 17:26.62 | 5:15.35 | 78512 | 102171
5 | 22:42.22 | 4:11.73 | 102172 | 121069
6 | 26:54.20 | 5:17.27 | 121070 | 144871
7 | 32:11.47 | 5:39.60 | 144872 | 170356
8 | 37:51.32 | 5:03.58 | 170357 | 193139


Range status and errors

Selected range

Filename Y:\Музыка\Dokken\1988 Beast From The East\Dokken - Beast From The East (Disc 2) [36P2-2681~2].wav

Peak level 100.0 %
Range quality 99.9 %
Copy CRC 174E1835
Copy OK

No errors occurred

End of status report


Состав:
Don Dokken: Vocals/Guitar
George Lynch: Guitar
Jeff Pilson: Bass/Vocals
Mick Brown: Drums

Народ

_________________
Витасу до Даймонда как Алсу до Руссоса | При переразмещении - спрашивать разрешение!!


Last edited by iezuit on 15 Apr 2010, edited 2 times in total.

Top
 Profile  
 
 
PostPosted: 15 Apr 2010 
А может смените мне статус?..
Joined: 03 Jul 2009
Posts: 868
Lоcаtion: Serbia
Name: Laki
Thank you so much!!!!! :thanx:


Top
 Profile E-mail  
 
 
PostPosted: 15 Apr 2010 
хард н хэвщик (support team)
User avatar
Joined: 02 Jun 2008
Posts: 16881
Lоcаtion: Н.Новгород
Age: 32
Name: Артем
:true:


Top
 Profile  
 
 
PostPosted: 15 Apr 2010 
Прокъмитолист
User avatar
Joined: 12 Aug 2007
Posts: 6552
Lоcаtion: Санктъ-Петербуркъ
Age: 51
Name: Олекъ
спасибо, Дим! :thanx: почему-то нет у меня этого концертника, так что с удовольствием забираю :true:

_________________
прокъметол - это музыко, от которово есть прок (ы)


Top
 Profile  
 
 
PostPosted: 15 Apr 2010 
ыыыы
User avatar
Joined: 17 May 2009
Posts: 952
Lоcаtion: Пушкино, МО
Age: 40
Name: Дмитрий
spiralarch
качай, не пожалеешь!! :true:

_________________
Витасу до Даймонда как Алсу до Руссоса | При переразмещении - спрашивать разрешение!!


Top
 Profile  
 
 
PostPosted: 15 Apr 2010 
ыыыы
User avatar
Joined: 17 May 2009
Posts: 952
Lоcаtion: Пушкино, МО
Age: 40
Name: Дмитрий
на первом диске с названием песен проблема :fingal: Куй под спойлером- переделал

_________________
Витасу до Даймонда как Алсу до Руссоса | При переразмещении - спрашивать разрешение!!


Top
 Profile  
 
 
PostPosted: 30 Apr 2010 
Пионэръ
Joined: 01 Apr 2009
Posts: 18
Age: 40
Name: .
doken for cult!

_________________
HAIL TO OLD SCHOOL METAL


Top
 Profile E-mail  
 
 
PostPosted: 07 Aug 2010 
Зарегился вот...
User avatar
Joined: 17 Jul 2010
Posts: 4
Lоcаtion: Netherlands
Age: 42
Name: /
Спасибо iezuit, это одна из моих любимых концертных альбомов :smile:


Top
 Profile E-mail  
 
 
PostPosted: 08 Aug 2010 
Пионэръ
Joined: 08 Mar 2010
Posts: 36
Lоcаtion: Россия
Age: 39
Name: Иван
alexander038
Поздравляю с хорошим русским :pardon:


Top
 Profile E-mail  
 
 
PostPosted: 08 Aug 2010 
ыыыы
User avatar
Joined: 17 May 2009
Posts: 952
Lоcаtion: Пушкино, МО
Age: 40
Name: Дмитрий
alexander038
На здоровье!! приходи/прилетай сегодня пить пиво! :bodun:

_________________
Витасу до Даймонда как Алсу до Руссоса | При переразмещении - спрашивать разрешение!!


Top
 Profile  
 
Display posts from previous:  Sort by  
Post new topic Reply to topic  [ 10 posts ] 

All times are UTC + 3 hours


Who is online

Users browsing this forum: No registered users and 1 guest


You cannot post new topics in this forum
You cannot reply to topics in this forum
You cannot edit your posts in this forum
You cannot delete your posts in this forum
You cannot post attachments in this forum

Search for:
Яндекс.Метрика
Powered by phpBB © 2000, 2002, 2005, 2007 phpBB Group