\m/ 80's metal \m/

Информационно-аналитический форум "80 см пыли" (In Search We Trust) "У нас никто никуда не спешит"
Me For You - http://me-4u.com
It is currently 23 Aug 2019

All times are UTC + 3 hours

Spoiler
Chat - temporary registration for foreign users (please leave your application here)







Post new topic Reply to topic  [ 10 posts ] 
Author Message
 
PostPosted: 14 Apr 2010 
ыыыы
User avatar
Joined: 17 May 2009
Posts: 952
Lоcаtion: Пушкино, МО
Age: 40
Name: Дмитрий
Image


Жанр: Heavy Metal/Hard Rock
Происхождение исполнителя: США
Год издания: 1987
Год издания данного носителя: 1987
Страна-производитель носителя: Япония
Аудио кодек: FLAC
Тип рипа: image+.cue
Битрейт аудио: lossless
Продолжительность: 63:10
Рип: Собственный
Лейбл: ELECTRA/WARNER-PIONEER
Каталоговый номер: 32XD-791
Матрица: 32XD-791 P02 (DENON)

Треклист:
1. Kiss of Death 05:52
2. The Prisoner 04:21
3. Night by Night 05:24
4. Standing in the Shadows 05:07
5. Heaven Sent 04:52
6. Mr. Scary 04:31
7. So Many Tears 04:56
8. Burning Like a Flame 04:47
9. Lost Behind a Wall 04:20
10. Stop Fighting Love 04:52
11. Cry of the Gypsy 04:51
12. Sleepless Night 04:32
13. Dream Warriors 04:44

"Куй"
REM GENRE "Hard Rock"
REM DATE 1987
REM DISCID B20ECD0D
REM COMMENT "ExactAudioCopy v0.99pb5"
PERFORMER "DOKKEN"
TITLE "BACK FOR THE ATTACK [32XD-791]"
FILE "DOKKEN - BACK FOR THE ATTACK [32XD-791].flac" WAVE
TRACK 01 AUDIO
TITLE "Kiss Of Death"
PERFORMER "DOKKEN"
INDEX 01 00:00:00
TRACK 02 AUDIO
TITLE "Prisoner"
PERFORMER "DOKKEN"
INDEX 00 05:51:50
INDEX 01 05:51:72
TRACK 03 AUDIO
TITLE "Night By Night"
PERFORMER "DOKKEN"
INDEX 01 10:12:62
TRACK 04 AUDIO
TITLE "Standing In The Shadows"
PERFORMER "DOKKEN"
INDEX 00 15:35:22
INDEX 01 15:36:42
TRACK 05 AUDIO
TITLE "Heaven Sent"
PERFORMER "DOKKEN"
INDEX 01 20:43:52
TRACK 06 AUDIO
TITLE "Mr. Scary"
PERFORMER "DOKKEN"
INDEX 01 25:36:12
TRACK 07 AUDIO
TITLE "So Many Tears"
PERFORMER "DOKKEN"
INDEX 00 30:06:52
INDEX 01 30:07:32
TRACK 08 AUDIO
TITLE "Burning Like A Flame"
PERFORMER "DOKKEN"
INDEX 01 35:03:65
TRACK 09 AUDIO
TITLE "Lost Behind The Wall"
PERFORMER "DOKKEN"
INDEX 01 39:50:67
TRACK 10 AUDIO
TITLE "Stop Fighting Love"
PERFORMER "DOKKEN"
INDEX 00 44:10:10
INDEX 01 44:10:35
TRACK 11 AUDIO
TITLE "Cry Of The Gypsy"
PERFORMER "DOKKEN"
INDEX 01 49:02:50
TRACK 12 AUDIO
TITLE "Sleepless Nights"
PERFORMER "DOKKEN"
INDEX 00 53:53:37
INDEX 01 53:53:57
TRACK 13 AUDIO
TITLE "Dream Warriors"
PERFORMER "DOKKEN"
INDEX 00 58:26:00
INDEX 01 58:26:17


"Лог"
Exact Audio Copy V0.99 prebeta 5 from 4. May 2009

EAC extraction logfile from 14. April 2010, 12:23

DOKKEN / BACK FOR THE ATTACK [32XD-791]

Used drive : Optiarc DVD RW AD-7200A Adapter: 0 ID: 0

Read mode : Secure
Utilize accurate stream : Yes
Defeat audio cache : Yes
Make use of C2 pointers : No

Read offset correction : 48
Overread into Lead-In and Lead-Out : No
Fill up missing offset samples with silence : Yes
Delete leading and trailing silent blocks : No
Null samples used in CRC calculations : Yes
Used interface : Native Win32 interface for Win NT & 2000

Used output format : User Defined Encoder
Selected bitrate : 128 kBit/s
Quality : High
Add ID3 tag : No
Command line compressor : C:\Program Files\Exact Audio Copy\Flac\flac.exe
Additional command line options : -8 -V -T "artist=%a" -T "title=%t" -T "album=%g" -T "date=%y" -T "tracknumber=%n" -T "genre=%m" -T "comment=EAC 0.9beta4 / FLAC 1.1.0 q6" %s


TOC of the extracted CD

Track | Start | Length | Start sector | End sector
---------------------------------------------------------
1 | 0:00.00 | 5:51.72 | 0 | 26396
2 | 5:51.72 | 4:20.65 | 26397 | 45961
3 | 10:12.62 | 5:23.55 | 45962 | 70241
4 | 15:36.42 | 5:07.10 | 70242 | 93276
5 | 20:43.52 | 4:52.35 | 93277 | 115211
6 | 25:36.12 | 4:31.20 | 115212 | 135556
7 | 30:07.32 | 4:56.33 | 135557 | 157789
8 | 35:03.65 | 4:47.02 | 157790 | 179316
9 | 39:50.67 | 4:19.43 | 179317 | 198784
10 | 44:10.35 | 4:52.15 | 198785 | 220699
11 | 49:02.50 | 4:51.07 | 220700 | 242531
12 | 53:53.57 | 4:32.35 | 242532 | 262966
13 | 58:26.17 | 4:43.40 | 262967 | 284231


Range status and errors

Selected range

Filename Y:\Музыка\Dokken\1987 Back For The Attack\DOKKEN - BACK FOR THE ATTACK [32XD-791].wav

Peak level 98.6 %
Range quality 100.0 %
Copy CRC C9214E0D
Copy OK

No errors occurred

End of status report


Состав:
Don Dokken: Vocals/Guitar
George Lynch: Guitar
Jeff Pilson: Bass/Vocals
Mick Brown: Drums

Народ

_________________
Витасу до Даймонда как Алсу до Руссоса | При переразмещении - спрашивать разрешение!!


Top
 Profile  
 
 
PostPosted: 14 Apr 2010 
HAMMER
User avatar
Joined: 16 May 2009
Posts: 5488
Lоcаtion: Тверь
Age: 46
Name: Александр
:thanx:


Top
 Profile E-mail  
 
 
PostPosted: 14 Apr 2010 
А может смените мне статус?..
User avatar
Joined: 24 Dec 2008
Posts: 647
Age: 45
Name: Дмитрий
Спасибо, "Kiss of Death" понравилась. Послушаю остальные.


Top
 Profile  
 
 
PostPosted: 14 Apr 2010 
5cm
User avatar
Joined: 01 Mar 2009
Posts: 61
Name: Сергей
БОЛЬШОЕ СПАСИБО !


Top
 Profile  
 
 
PostPosted: 14 Apr 2010 
дядя Миша
User avatar
Joined: 17 Oct 2008
Posts: 3168
Lоcаtion: USSR
Age: 56
Name: Khy
Кто любит мелодичный hard'n'heavy просто обязан иметь на CD в коллекции 85 и 87 Dokken . Я их даже на виниле держу, ну и на cd само собой.


Top
 Profile  
 
 
PostPosted: 14 Apr 2010 
ыыыы
User avatar
Joined: 17 May 2009
Posts: 952
Lоcаtion: Пушкино, МО
Age: 40
Name: Дмитрий
VARVAAR
и это правильно!!

_________________
Витасу до Даймонда как Алсу до Руссоса | При переразмещении - спрашивать разрешение!!


Top
 Profile  
 
 
PostPosted: 14 Apr 2010 
А может смените мне статус?..
Joined: 03 Jul 2009
Posts: 880
Lоcаtion: Serbia
Name: Laki
Thanks great post. I needed the Japanese edition. Do you perhaps have the double CD edition of "Beast From The East" with two songs that were originally omitted from first press CD ?


Top
 Profile E-mail  
 
 
PostPosted: 14 Apr 2010 
ыыыы
User avatar
Joined: 17 May 2009
Posts: 952
Lоcаtion: Пушкино, МО
Age: 40
Name: Дмитрий
yes

_________________
Витасу до Даймонда как Алсу до Руссоса | При переразмещении - спрашивать разрешение!!


Top
 Profile  
 
 
PostPosted: 14 Apr 2010 
А может смените мне статус?..
Joined: 03 Jul 2009
Posts: 880
Lоcаtion: Serbia
Name: Laki
iezuit wrote:
yes



Great. Will you upload it when you find the time ?


Top
 Profile E-mail  
 
 
PostPosted: 14 Apr 2010 
ыыыы
User avatar
Joined: 17 May 2009
Posts: 952
Lоcаtion: Пушкино, МО
Age: 40
Name: Дмитрий
ok! ;)

Kat #36P2-2681~2
+STANDING IN THE SHADOWS
+SLEEPLES NIGHTS (Misprint!)
+TURN ON THE ACTION

_________________
Витасу до Даймонда как Алсу до Руссоса | При переразмещении - спрашивать разрешение!!


Top
 Profile  
 
Display posts from previous:  Sort by  
Post new topic Reply to topic  [ 10 posts ] 

All times are UTC + 3 hours


Who is online

Users browsing this forum: No registered users and 1 guest


You cannot post new topics in this forum
You cannot reply to topics in this forum
You cannot edit your posts in this forum
You cannot delete your posts in this forum
You cannot post attachments in this forum

Search for:
Яндекс.Метрика
Powered by phpBB © 2000, 2002, 2005, 2007 phpBB Group