\m/ 80's metal \m/

Информационно-аналитический форум "80 см пыли" (In Search We Trust) "У нас никто никуда не спешит"
Me For You - http://me-4u.com
It is currently 25 Aug 2019

All times are UTC + 3 hours

Spoiler
Chat - temporary registration for foreign users (please leave your application here)







Post new topic Reply to topic  [ 1 post ] 
Author Message
 
PostPosted: 08 Apr 2010 
А может смените мне статус?..
User avatar
Joined: 22 Nov 2008
Posts: 971
Lоcаtion: Schelcovo,Russia
Age: 47
Name: Сергей
Image
Djordje David & Fuzz Box - Samo svoj (2003)

Genre:Hard Rock
Year:2003
Country:Belgrade, Serbia
Bitrate: flac+cue+log+scans/mp3
Size: 273Mb

Track List:
1. Samo svoj
2. Zajedno (Gde god da krenem)
3. Ti si ta (Bilo gde)
4. Nemirne noci
5. Hocu da pobegnem
6. Jutro
7. Ona je (Put bez povratka)
8. Majko, zemljo, jedina

"Куй"
REM GENRE Rock
REM DATE 2003
REM DISCID 5308BF08
REM COMMENT "ExactAudioCopy v0.95b4"
PERFORMER "Djordje David & Fuzzbox"
TITLE "Djordje David & Fuzzbox"
FILE "Djordje David & Fuzzbox - Djordje David & Fuzzbox.wav" WAVE
TRACK 01 AUDIO
TITLE "Samo Svoj"
PERFORMER "Djordje David & Fuzzbox"
INDEX 01 00:00:00
TRACK 02 AUDIO
TITLE "Zajedno (Gde God Da Pobegnem)"
PERFORMER "Djordje David & Fuzzbox"
INDEX 00 03:47:40
INDEX 01 03:49:50
TRACK 03 AUDIO
TITLE "Ti Si Ta (Bilo Gde)"
PERFORMER "Djordje David & Fuzzbox"
INDEX 00 09:15:67
INDEX 01 09:18:05
TRACK 04 AUDIO
TITLE "Nemirne Noci"
PERFORMER "Djordje David & Fuzzbox"
INDEX 00 14:13:02
INDEX 01 14:15:60
TRACK 05 AUDIO
TITLE "Hocu Da Pobegnem"
PERFORMER "Djordje David & Fuzzbox"
INDEX 00 19:07:45
INDEX 01 19:09:55
TRACK 06 AUDIO
TITLE "Jutro"
PERFORMER "Djordje David & Fuzzbox"
INDEX 00 23:21:15
INDEX 01 23:23:22
TRACK 07 AUDIO
TITLE "Ona Je... (Put Bez Povratka)"
PERFORMER "Djordje David & Fuzzbox"
INDEX 00 28:20:47
INDEX 01 28:22:55
TRACK 08 AUDIO
TITLE "Majko Zemljo Jedina"
PERFORMER "Djordje David & Fuzzbox"
INDEX 00 32:16:05
INDEX 01 32:18:15


"Лог"
Отчёт EAC об извлечении, выполненном 30. марта 2010, 19:37 для диска:
Djordje David & Fuzzbox / Djordje David & Fuzzbox

Дисковод: MATSHITADVD-RAM UJ-850S Adapter: 2 ID: 0
Режим чтения: Достоверный (C2: нет, Точный поток: да, Отключение кэша: да)
Коррекция смещения при чтении: 102
Способность читать области Lead-in и Lead-out : Нет

Выходной формат: Внутренние WAV-операции
44.100 Гц; 16 бит; стерео

Другие параметры:
Заполнение пропущенных сэмплов тишиной : Да
Удаление блоков с тишиной в начале и конце : Нет
Установленный внешний ASPI-интерфейс


Характеристики диапазона извлечения и сообщения об ошибках
Выбранный диапазон
Имя файла D:\Мои Документы\Моя музыка\Djordje David & Fuzzbox - Djordje David & Fuzzbox.wav


Narod

Диск привез товарищ из командировки в Сербию.[youtube][/youtube]


Top
 Profile  
 
Display posts from previous:  Sort by  
Post new topic Reply to topic  [ 1 post ] 

All times are UTC + 3 hours


Who is online

Users browsing this forum: No registered users and 1 guest


You cannot post new topics in this forum
You cannot reply to topics in this forum
You cannot edit your posts in this forum
You cannot delete your posts in this forum
You cannot post attachments in this forum

Search for:
Яндекс.Метрика
Powered by phpBB © 2000, 2002, 2005, 2007 phpBB Group