\m/ 80's metal \m/

Информационно-аналитический форум "80 см пыли" (In Search We Trust) "У нас никто никуда не спешит"
Me For You - http://me-4u.com
It is currently 26 Aug 2019

All times are UTC + 3 hours

Spoiler
Chat - temporary registration for foreign users (please leave your application here)







Post new topic Reply to topic  [ 5 posts ] 
Author Message
 
PostPosted: 27 Feb 2010 
Хиппей (support team)
User avatar
Joined: 30 Jul 2007
Posts: 114094
Lоcаtion: Киев (Kyiv, UA)
Age: 46
Name: Andrey
Destructor - 1985 - Maximum Destruction (reissued 1998) [ape]

Image

Image

Genre: Thrash Metal
Location: USA
Format: ape+cue+log
Size: 434 Mb


Line-up:

Dave Overkill - vocals, guitar
Pat Rabid - guitar
Dave Holocaust - bass
Matt Flammable - drums

Reissued by Listenable Records in 1998 with the Decibel Casualties demo
as bonus tracks.

    1. Prelude In Sledge Minor, Opus 7, 1st Movement - 00:53
    2. Maximum Destruction - 07:05
    3. Destructor - 02:51
    4. Take Command - 04:01
    5. Instrumental - 02:06
    6. Pounding Evil - 04:02
    7. Overdose - 04:04
    8. Iron Curtain - 05:44
    9. Hot Wet Leather - 01:29
    10. Bondage - 03:48

    TPT: 36:03

Destructor - 1986 - Decibel Casualties

Image

    1. Bring Down the Hammer - 03:43
    2. Storm of Steel - 04:07
    3. Power Aggression - 04:30
    4. Smash Your Skulls - 04:23

    TPT: 16:43

MultiUp l Narod

Thanx Defecation from MMT :thanx:


Ну чего говорить - альбом красава :true: Классика американского трэша. Правда не калифорнийского, и по звучанию ближе всего к канадскому. Тем группа и ценна.
Переиздание достаточно качественно звучит, и даже бонусная демка. Во как.


log
EAC extraction logfile from 14. March 2004, 14:40 for CD
Destructor / Maximum Destruction

Used drive : SONY DVD RW DRU-510A Adapter: 3 ID: 1
Read mode : Secure with NO C2, accurate stream, NO disable cache
Read offset correction : 120
Overread into Lead-In and Lead-Out : No

Used output format : Internal WAV Routines
44.100 Hz; 16 Bit; Stereo

Other options :
Fill up missing offset samples with silence : Yes
Delete leading and trailing silent blocks : No
Installed external ASPI interface


Range status and errors
Selected range
Filename e:\Destructor - Maximum Destruction.wav

Peak level 100.0 %
Range quality 100.0 %
CRC CF96E3AC
Copy OK

No errors occured

End of status report


cue
PERFORMER "Destructor"
TITLE "Maximum Destruction"
FILE "Destructor - Maximum Destruction.wav" WAVE
TRACK 01 AUDIO
TITLE "Prelude In Sledge-Minor Opus 7 1st Movement"
PERFORMER "Destructor"
INDEX 01 00:00:00
TRACK 02 AUDIO
TITLE "Maximum Destruction"
PERFORMER "Destructor"
INDEX 00 00:47:45
INDEX 01 00:49:45
TRACK 03 AUDIO
TITLE "Destructor"
PERFORMER "Destructor"
INDEX 01 08:02:22
TRACK 04 AUDIO
TITLE "Overdose"
PERFORMER "Destructor"
INDEX 00 10:58:35
INDEX 01 11:00:35
TRACK 05 AUDIO
TITLE "Instrumental"
PERFORMER "Destructor"
INDEX 00 15:09:40
INDEX 01 15:11:40
TRACK 06 AUDIO
TITLE "Pounding Evil"
PERFORMER "Destructor"
INDEX 00 17:21:25
INDEX 01 17:23:25
TRACK 07 AUDIO
TITLE "Take Command"
PERFORMER "Destructor"
INDEX 00 21:22:10
INDEX 01 21:24:10
TRACK 08 AUDIO
TITLE "Iron Curtain"
PERFORMER "Destructor"
INDEX 00 25:32:25
INDEX 01 25:34:25
TRACK 09 AUDIO
TITLE "Hot Wet Leather / Bondage"
PERFORMER "Destructor"
INDEX 00 31:23:10
INDEX 01 31:25:10
TRACK 10 AUDIO
TITLE "Bring Down The Hammer"
PERFORMER "Destructor"
INDEX 00 36:47:38
INDEX 01 36:49:38
TRACK 11 AUDIO
TITLE "Storm Of Steel"
PERFORMER "Destructor"
INDEX 00 40:30:33
INDEX 01 40:32:33
TRACK 12 AUDIO
TITLE "Power Aggression"
PERFORMER "Destructor"
INDEX 00 44:38:13
INDEX 01 44:40:13
TRACK 13 AUDIO
TITLE "Smash Your Skulls"
PERFORMER "Destructor"
INDEX 00 49:08:20
INDEX 01 49:10:20
TRACK 14 AUDIO
TITLE "Destructor (Live)"
PERFORMER "Destructor"
INDEX 00 53:31:34
INDEX 01 53:33:34
TRACK 15 AUDIO
TITLE "Maximum Destruction (Live)"
PERFORMER "Destructor"
INDEX 00 56:50:65
INDEX 01 56:52:65


phpBB [youtube]

_________________


Top
 Profile E-mail  
 
 
PostPosted: 05 Apr 2010 
Хиппей (support team)
User avatar
Joined: 30 Jul 2007
Posts: 114094
Lоcаtion: Киев (Kyiv, UA)
Age: 46
Name: Andrey
Не прошло и 2-х месяцев, как удалось залить альбомчик... :oops:

_________________


Top
 Profile E-mail  
 
 
PostPosted: 06 Apr 2010 
Motörheadache
User avatar
Joined: 04 Feb 2010
Posts: 1294
Lоcаtion: Впереди- горы,позади-степи
Age: 46
Name: Александр
Респект,Саныч,...респект.. :true:
:gra: :gra:

_________________
Eine Nation, Ein Land, Eine Schnaps!

Наш священный долг:защищать Родину,и соблюдать правила личной гигиены....!


Top
 Profile E-mail  
 
 
PostPosted: 16 Apr 2010 
udo
User avatar
Joined: 01 Mar 2008
Posts: 2343
Lоcаtion: Краснодар
Age: 48
Name: РОМАН
Scatterbrain wrote:
Не прошло и 2-х месяцев, как удалось залить альбомчи

это все смена имиджа


Top
 Profile E-mail  
 
 
PostPosted: 07 Mar 2011 
Зарегился вот...
Joined: 04 Mar 2011
Posts: 8
Age: 107
Name: _
Спасибо за лося :losik: :true:


Top
 Profile E-mail  
 
Display posts from previous:  Sort by  
Post new topic Reply to topic  [ 5 posts ] 

All times are UTC + 3 hours


Who is online

Users browsing this forum: No registered users and 1 guest


You cannot post new topics in this forum
You cannot reply to topics in this forum
You cannot edit your posts in this forum
You cannot delete your posts in this forum
You cannot post attachments in this forum

Search for:
Яндекс.Метрика
Powered by phpBB © 2000, 2002, 2005, 2007 phpBB Group