\m/ 80's metal \m/

Информационно-аналитический форум "80 см пыли" (In Search We Trust) "У нас никто никуда не спешит"
Me For You - http://me-4u.com
It is currently 20 Jul 2019

All times are UTC + 3 hours

Spoiler
Chat - temporary registration for foreign users (please leave your application here)







Post new topic Reply to topic  [ 4 posts ] 
Author Message
 
PostPosted: 21 Feb 2010 
Old Time Rock`n`Roll
User avatar
Joined: 23 Jun 2008
Posts: 3461
Lоcаtion: г.Ульяновск
Age: 40
Name: Константин
Dangerous Toys – Pissed (1994)

Image

Year: 1994
Style: Glam/Hard Rock, Hair Metal
Country: USA
Format: FLAC + log + cue + scans & mp3-320
Size: 278 Mb + 88 Mb

Tracklist
01. Pissed (4:10)
02. Paintrain (4:29)
03. The Law Is Mine (3:18)
04. Promise The Moon (3:43)
05. Strange (4:17)
06. Loser (3:58)
07. Hard Luck Champion (3:35)
08. Screamin' For More (3:00)
09. Oh Well, So What! (3:20)
10. Illustrated Man (4:28)

TPT – 38:31

Line-Up
Jason McMaster - Vocals
Mark Geary - Drums
Mike Watson - Bass, Backing Vocals
Paul Lidel - Guitar, Backing Vocals
Scott Dalhover - Guitar

Album Credits:
Produced: Billy Sherwood/Tom Fletcher
Engineered: Tom Fletcher
Mixed: Billy Sherwood/Tom Fletcher
Mastered: Wally Traugoh

Additional Credits :
Art Direction/Design: Dick Reeves/Bryan Simmons
Front Cover Illustration: Tommy Pons
Photography: Wyatt McSpadden
Management: Tim Heyne & John Greenberg-TAP/KO Ent. Associates., Encino, CA
Road Dog: Ken Gordon (Tour Manager/Sound/Guitars)
Road Dog: Brian Bowen (Drums)
Road Dog: Ben Burton (Sound)
Road Dog: Jeff Tweedy (Guitar)

Log
Exact Audio Copy V0.99 prebeta 4 from 23. January 2008

EAC extraction logfile from 13. February 2008, 10:35

Dangerous Toys / Pissed

Used drive : HL-DT-STDVDRAM GSA-4120B Adapter: 1 ID: 0

Read mode : Secure
Utilize accurate stream : Yes
Defeat audio cache : Yes
Make use of C2 pointers : No

Read offset correction : 667
Overread into Lead-In and Lead-Out : No
Fill up missing offset samples with silence : Yes
Delete leading and trailing silent blocks : No
Null samples used in CRC calculations : No
Used interface : Installed external ASPI interface

Used output format : Internal WAV Routines
Sample format : 44.100 Hz; 16 Bit; Stereo


TOC of the extracted CD

Track | Start | Length | Start sector | End sector
---------------------------------------------------------
1 | 0:00.32 | 4:10.43 | 32 | 18824
2 | 4:11.00 | 4:30.52 | 18825 | 39126
3 | 8:41.52 | 3:20.20 | 39127 | 54146
4 | 12:01.72 | 3:43.45 | 54147 | 70916
5 | 15:45.42 | 4:17.68 | 70917 | 90259
6 | 20:03.35 | 3:59.42 | 90260 | 108226
7 | 24:03.02 | 3:36.20 | 108227 | 124446
8 | 27:39.22 | 3:02.58 | 124447 | 138154
9 | 30:42.05 | 3:20.62 | 138155 | 153216
10 | 34:02.67 | 4:28.28 | 153217 | 173344


Range status and errors

Selected range

Filename D:\Cd\To Share\Dangerous Toys - 1994 - Pissed [Eac-Ape] by Sapo Malo\Dangerous Toys - Pissed.wav

Peak level 100.0 %
Range quality 100.0 %
Copy CRC AED1FB0C
Copy OK

No errors occurred


AccurateRip summary

Track 1 accurately ripped (confidence 2) [05D94335]
Track 2 accurately ripped (confidence 2) [D5CE7DE6]
Track 3 accurately ripped (confidence 2) [64F43BBB]
Track 4 accurately ripped (confidence 2) [9FE10996]
Track 5 accurately ripped (confidence 2) [A285366D]
Track 6 accurately ripped (confidence 2) [B427C5E7]
Track 7 accurately ripped (confidence 2) [E90EF74F]
Track 8 accurately ripped (confidence 2) [99C71F01]
Track 9 accurately ripped (confidence 2) [EF7CBB83]
Track 10 accurately ripped (confidence 2) [EAC32955]

All tracks accurately ripped

End of status report


Cue
REM GENRE "Hard Rock"
REM DATE 1994
REM DISCID 7509070A
REM COMMENT "ExactAudioCopy v0.99pb4"
CATALOG 0000000000000
PERFORMER "Dangerous Toys"
TITLE "Pissed"
FILE "Dangerous Toys - Pissed.wav" WAVE
TRACK 01 AUDIO
TITLE "Pissed"
PERFORMER "Dangerous Toys"
INDEX 00 00:00:00
INDEX 01 00:00:32
TRACK 02 AUDIO
TITLE "Paintrain"
PERFORMER "Dangerous Toys"
INDEX 00 04:10:57
INDEX 01 04:11:00
TRACK 03 AUDIO
TITLE "The Law Is Mine"
PERFORMER "Dangerous Toys"
INDEX 00 08:40:25
INDEX 01 08:41:52
TRACK 04 AUDIO
TITLE "Promise The Moon"
PERFORMER "Dangerous Toys"
INDEX 00 12:00:45
INDEX 01 12:01:72
TRACK 05 AUDIO
TITLE "Strange"
PERFORMER "Dangerous Toys"
INDEX 00 15:45:00
INDEX 01 15:45:42
TRACK 06 AUDIO
TITLE "Loser"
PERFORMER "Dangerous Toys"
INDEX 00 20:02:72
INDEX 01 20:03:35
TRACK 07 AUDIO
TITLE "Hard Luck Champion"
PERFORMER "Dangerous Toys"
INDEX 00 24:01:65
INDEX 01 24:03:02
TRACK 08 AUDIO
TITLE "Screamin' For More"
PERFORMER "Dangerous Toys"
INDEX 00 27:38:27
INDEX 01 27:39:22
TRACK 09 AUDIO
TITLE "Oh Well, So What!"
PERFORMER "Dangerous Toys"
INDEX 00 30:40:10
INDEX 01 30:42:05
TRACK 10 AUDIO
TITLE "Illustrated Man"
PERFORMER "Dangerous Toys"
INDEX 00 34:02:25
INDEX 01 34:02:67


FLAC
megaupload-FLAC

mp3-320
narod-320

Релиз с WWR, автор рипа – Keykey. Последний и самый тяжелый студийный альбом.

Image


Top
 Profile  
 
 
PostPosted: 22 Feb 2010 
Генеральный thrasher
User avatar
Joined: 03 Oct 2008
Posts: 3714
Lоcаtion: Ханты-Мансийский АО
Age: 44
Name: Сергей
Костя,спасибо.Взял... :meloman:


Top
 Profile  
 
 
PostPosted: 22 Feb 2010 
Анатолий
User avatar
Joined: 18 Oct 2008
Posts: 3506
Lоcаtion: Армавир
Age: 42
Name: Анатолий
Хе-хе, а какая гарная маечка у товарища, который расположился повыше всех. :true: Видимо ностальгирует. :cry: :smile:

Спасибо за релиз! :thanx:


Top
 Profile E-mail  
 
 
PostPosted: 22 Feb 2010 
Old Time Rock`n`Roll
User avatar
Joined: 23 Jun 2008
Posts: 3461
Lоcаtion: г.Ульяновск
Age: 40
Name: Константин
Не, просто хэйр-майки Макмастер сдал в хим.чистку, вот и надел первое что попалось))


Top
 Profile  
 
Display posts from previous:  Sort by  
Post new topic Reply to topic  [ 4 posts ] 

All times are UTC + 3 hours


Who is online

Users browsing this forum: No registered users and 1 guest


You cannot post new topics in this forum
You cannot reply to topics in this forum
You cannot edit your posts in this forum
You cannot delete your posts in this forum
You cannot post attachments in this forum

Search for:
Яндекс.Метрика
cron
Powered by phpBB © 2000, 2002, 2005, 2007 phpBB Group