\m/ 80's metal \m/

Информационно-аналитический форум "80 см пыли" (In Search We Trust) "У нас никто никуда не спешит"
Me For You - http://me-4u.com
It is currently 25 May 2019

All times are UTC + 3 hours

Spoiler
Chat - temporary registration for foreign users (please leave your application here)







Post new topic Reply to topic  [ 11 posts ] 
Author Message
 
PostPosted: 14 Feb 2010 
Old Time Rock`n`Roll
User avatar
Joined: 23 Jun 2008
Posts: 3428
Lоcаtion: г.Ульяновск
Age: 40
Name: Константин
Charlie Daniels – Renegade (1991)

Image

Year: 1991
Style: Country Rock, Southern Rock, Classic Rock
Country: USA
Format: FLAC + log + cue + booklet & mp3-320
Size: 253 Mb + 104 Mb

Tracklist
01. Renegade (3:59)
02.Talk To Me Fiddle (3:35)
03. Little Folks (3:16)
04. Honky Tonk Life (3:25)
05. Layla (3:02)
06. The Twang Factor (3:23)
07. Fathers And Sons (3:49)
08. What My Baby Sees In Me (3:07)
09. Willie Jones (3:16)
10. Let Freedom Ring (5:06)

TPT – 35:58

Line-Up
Charlie Daniels – Guitar, Fiddle, Banjo, Mandolin, Vocal
Bruce Ray Brown – Guitar, Vocals, Harmonica
Taz DiGregorio – Keyboards
Jack Gavin – Drums & Percussion
Charlie Hauword – Bass Guitar

Additional Players:
Carolyn Carlew – vocals
James Stroud – vocals
Bobby Jones And The Life Singers – vocals
The Fisk Jubilee Singers – vocals

Album Credits:
Produced by James Stroud
Engineered And Mixed by Linn Peterzell

Chart Position:
USA # 139

Log
EAC extraction logfile from 23. March 2007, 18:36 for CD
The Charlie Daniels Band / Renegade

Used drive : _NEC DVD_RW ND-4571A Adapter: 2 ID: 0
Read mode : Secure with NO C2, accurate stream, disable cache
Read offset correction : 48
Overread into Lead-In and Lead-Out : No

Used output format : Internal WAV Routines
44.100 Hz; 16 Bit; Stereo

Other options :
Fill up missing offset samples with silence : Yes
Delete leading and trailing silent blocks : No
Installed external ASPI interface


Range status and errors
Selected range
Filename C:\HQ\Charlie Daniels - Renegade\CDImage.wav

Peak level 100.0 %
Range quality 99.9 %
CRC ABA2F9C4
Copy OK

No errors occured

End of status report


Cue
PERFORMER "The Charlie Daniels Band"
TITLE "Renegade"
FILE "CDImage.wav" WAVE
TRACK 01 AUDIO
TITLE "Renegade"
PERFORMER "The Charlie Daniels Band"
INDEX 01 00:00:00
TRACK 02 AUDIO
TITLE "Talk To Me Fiddle"
PERFORMER "The Charlie Daniels Band"
INDEX 00 03:58:37
INDEX 01 03:59:37
TRACK 03 AUDIO
TITLE "Little Folks"
PERFORMER "The Charlie Daniels Band"
INDEX 00 07:34:25
INDEX 01 07:35:25
TRACK 04 AUDIO
TITLE "Honky Tonk Life"
PERFORMER "The Charlie Daniels Band"
INDEX 00 10:49:72
INDEX 01 10:51:22
TRACK 05 AUDIO
TITLE "Layla"
PERFORMER "The Charlie Daniels Band"
INDEX 00 14:14:72
INDEX 01 14:16:22
TRACK 06 AUDIO
TITLE "The Twang Factor"
PERFORMER "The Charlie Daniels Band"
INDEX 00 17:17:70
INDEX 01 17:18:70
TRACK 07 AUDIO
TITLE "Fathers And Sons"
PERFORMER "The Charlie Daniels Band"
INDEX 00 20:41:57
INDEX 01 20:42:57
TRACK 08 AUDIO
TITLE "What My Baby Sees In Me"
PERFORMER "The Charlie Daniels Band"
INDEX 00 24:30:70
INDEX 01 24:31:70
TRACK 09 AUDIO
TITLE "Willie Jones"
PERFORMER "The Charlie Daniels Band"
INDEX 00 27:38:02
INDEX 01 27:39:02
TRACK 10 AUDIO
TITLE "Let Freedom Ring"
PERFORMER "The Charlie Daniels Band"
INDEX 00 30:54:70
INDEX 01 30:55:70


FLAC
narod-FLAC
megaupload-FLAC

mp3-320
megaupload-320

Релиз с HQShare, автор рипа – Huddel
Доступный для широких народных масс утяжеленный вариант кантри-рока, выпущенный как сольный альбом Чарли Дэниелса, чей звездный час пришелся на середину 70-х.
Дубляж моей новости с мула, может заинтересует кого, альбом отменный.


Top
 Profile  
 
 
PostPosted: 14 Feb 2010 
Хиппей (support team)
User avatar
Joined: 30 Jul 2007
Posts: 112790
Lоcаtion: Киев (Kyiv, UA)
Age: 45
Name: Andrey
oldrocker wrote:
Дубляж

Вот те и раз :cry:

_________________


Top
 Profile E-mail  
 
 
PostPosted: 14 Feb 2010 
Old Time Rock`n`Roll
User avatar
Joined: 23 Jun 2008
Posts: 3428
Lоcаtion: г.Ульяновск
Age: 40
Name: Константин
Ну я так часто делаю, и там и сям новости выдаю, если уж альбом закачан пусть качается, не пропадать же трудам по закачке.

Scatterbrain wrote:
oldrocker wrote:
Дубляж

Вот те и раз :cry:


А ты не знал? Вот все лежишь на своей админной печи и не знаешь что в мире доков-то творится))
Там уж давно например фотосессии моделей выкладывают. И куда рок-музыка катится? )))


Top
 Profile  
 
 
PostPosted: 14 Feb 2010 
Хиппей (support team)
User avatar
Joined: 30 Jul 2007
Posts: 112790
Lоcаtion: Киев (Kyiv, UA)
Age: 45
Name: Andrey
oldrocker wrote:
Там уж давно например фотосессии моделей выкладывают

Ого. Порнучных или околомузыкальных? :shok:

_________________


Top
 Profile E-mail  
 
 
PostPosted: 14 Feb 2010 
Old Time Rock`n`Roll
User avatar
Joined: 23 Jun 2008
Posts: 3428
Lоcаtion: г.Ульяновск
Age: 40
Name: Константин
Порядочно-эротических))
Это у нас только лоси-мп3-музыкальные темы и никакого гламура понимаешь :crazy:
Ты хоть бы свою скрытую рекламу вытащил)))


Top
 Profile  
 
 
PostPosted: 14 Feb 2010 
Хиппей (support team)
User avatar
Joined: 30 Jul 2007
Posts: 112790
Lоcаtion: Киев (Kyiv, UA)
Age: 45
Name: Andrey
oldrocker wrote:
Ты хоть бы свою скрытую рекламу вытащил)))

Кстати, да, спасибо, что напомнил :crazy: На днях вставлю :thanx:

_________________


Top
 Profile E-mail  
 
 
PostPosted: 14 Feb 2010 
Хиппей (support team)
User avatar
Joined: 30 Jul 2007
Posts: 112790
Lоcаtion: Киев (Kyiv, UA)
Age: 45
Name: Andrey
Оффтоп. Человек в шляпе неожиданно похож одновременно на Чака Норриса и Шуфутинского :shok:

_________________


Top
 Profile E-mail  
 
 
PostPosted: 14 Feb 2010 
Old Time Rock`n`Roll
User avatar
Joined: 23 Jun 2008
Posts: 3428
Lоcаtion: г.Ульяновск
Age: 40
Name: Константин
Настоящий шериф :true:


Top
 Profile  
 
 
PostPosted: 15 Feb 2010 
Почётный металлург
User avatar
Joined: 15 Sep 2007
Posts: 4358
Lоcаtion: Хабаровск
Age: 59
Name: чуть выше
Спасибо! Этот не слышал. Заценю.

_________________
Коль будешь людей ты ослами честить,
тебе человеком меж них не прослыть!
(Саади, персидский поэт, 13в.)


Top
 Profile  
 
 
PostPosted: 15 Feb 2010 
Old Time Rock`n`Roll
User avatar
Joined: 23 Jun 2008
Posts: 3428
Lоcаtion: г.Ульяновск
Age: 40
Name: Константин
южного рока там не очень прямо скажем, зато море утяжеленного кантри-рока, за это и нравится.


Top
 Profile  
 
 
PostPosted: 15 Feb 2010 
Труъ
User avatar
Joined: 17 Oct 2009
Posts: 124
Name: Олег
Спасибо!


Top
 Profile E-mail  
 
Display posts from previous:  Sort by  
Post new topic Reply to topic  [ 11 posts ] 

All times are UTC + 3 hours


Who is online

Users browsing this forum: No registered users and 3 guests


You cannot post new topics in this forum
You cannot reply to topics in this forum
You cannot edit your posts in this forum
You cannot delete your posts in this forum
You cannot post attachments in this forum

Search for:
Яндекс.Метрика
Powered by phpBB © 2000, 2002, 2005, 2007 phpBB Group