\m/ 80's metal \m/

Информационно-аналитический форум "80 см пыли" (In Search We Trust) "У нас никто никуда не спешит"
Me For You - http://me-4u.com
It is currently 25 May 2019

All times are UTC + 3 hours

Spoiler
Chat - temporary registration for foreign users (please leave your application here)







Post new topic Reply to topic  [ 17 posts ] 
Author Message
 
PostPosted: 13 Feb 2010 
Генеральный thrasher
User avatar
Joined: 03 Oct 2008
Posts: 3708
Lоcаtion: Ханты-Мансийский АО
Age: 44
Name: Сергей
Destroyers - The Miseries Of Virtue 1991 (Remastered 2009)

Image

Year: 1991 (2009 Re-Issue)
Style: Thrash Metal
Country: Poland
Audio: flac+cue+log
Size: 577Mb
Label: Metal Mind Productions

Tracklist:
1. The Miseries of Virtue
2. Historie d'O
3. Peachlet
4. Odyssey
5. Nymphomania
6. The Craft of Tyranny
7. I Prasie You, Lilith
Bonus tracks:
8. Niedole cnoty
9. Historia "O"
10. Brzoskwinka
11. Odyseja
12. Nimfomania
13. Narodziny Kurtyzany
14. Kunszt Tyranii
15. Czcze cie Lilith

Cue
REM GENRE "Thrash Metal"
REM DATE 2009
REM DISCID CD12AD0F
REM COMMENT "ExactAudioCopy v0.99pb4"
PERFORMER "Destroyers"
TITLE "The Miseries Of Virtue"
FILE "Destroyers - The Miseries Of Virtue.flac" WAVE
TRACK 01 AUDIO
TITLE "The Miseries of Virtue"
PERFORMER "Destroyers"
FLAGS DCP
INDEX 01 00:00:00
TRACK 02 AUDIO
TITLE "Historie d'O"
PERFORMER "Destroyers"
FLAGS DCP
INDEX 00 04:29:39
INDEX 01 04:31:39
TRACK 03 AUDIO
TITLE "Peachlet"
PERFORMER "Destroyers"
FLAGS DCP
INDEX 00 11:01:19
INDEX 01 11:03:19
TRACK 04 AUDIO
TITLE "Odyssey"
PERFORMER "Destroyers"
FLAGS DCP
INDEX 00 15:00:12
INDEX 01 15:02:12
TRACK 05 AUDIO
TITLE "Nymphomania"
PERFORMER "Destroyers"
FLAGS DCP
INDEX 00 20:39:21
INDEX 01 20:41:20
TRACK 06 AUDIO
TITLE "The Craft of Tyranny"
PERFORMER "Destroyers"
FLAGS DCP
INDEX 00 26:17:66
INDEX 01 26:19:66
TRACK 07 AUDIO
TITLE "I Prasie You, Lilith"
PERFORMER "Destroyers"
FLAGS DCP
INDEX 00 30:31:52
INDEX 01 30:33:52
TRACK 08 AUDIO
TITLE "Niedole cnoty"
PERFORMER "Destroyers"
FLAGS DCP
INDEX 00 36:36:52
INDEX 01 36:38:52
TRACK 09 AUDIO
TITLE "Historia "O""
PERFORMER "Destroyers"
FLAGS DCP
INDEX 00 41:08:34
INDEX 01 41:10:34
TRACK 10 AUDIO
TITLE "Brzoskwinka"
PERFORMER "Destroyers"
FLAGS DCP
INDEX 00 47:40:38
INDEX 01 47:42:38
TRACK 11 AUDIO
TITLE "Odyseja"
PERFORMER "Destroyers"
FLAGS DCP
INDEX 00 51:38:49
INDEX 01 51:40:49
TRACK 12 AUDIO
TITLE "Nimfomania"
PERFORMER "Destroyers"
FLAGS DCP
INDEX 00 57:15:27
INDEX 01 57:17:27
TRACK 13 AUDIO
TITLE "Narodziny Kurtyzany"
PERFORMER "Destroyers"
FLAGS DCP
INDEX 00 62:54:32
INDEX 01 62:56:32
TRACK 14 AUDIO
TITLE "Kunszt Tyranii"
PERFORMER "Destroyers"
FLAGS DCP
INDEX 00 69:23:26
INDEX 01 69:25:25
TRACK 15 AUDIO
TITLE "Czcze cie Lilith"
PERFORMER "Destroyers"
FLAGS DCP
INDEX 00 73:38:37
INDEX 01 73:40:37

Log
Exact Audio Copy V0.99 prebeta 4 from 23. January 2008

Отчёт EAC об извлечении, выполненном 12. февраля 2010, 16:02

Destroyers / The Miseries Of Virtue

Дисковод: ATAPI DVD A DH20A4P Adapter: 0 ID: 1

Режим чтения : Достоверность
Использование точного потока : Да
Отключение кэша аудио : Да
Использование указателей C2 : Нет

Коррекция смещения при чтении : 6
Способность читать области Lead-in и Lead-out : Нет
Заполнение пропущенных сэмплов тишиной : Да
Удаление блоков с тишиной в начале и конце : Нет
При вычислениях CRC использовались нулевые сэмплы : Нет
Интерфейс : Установленный внешний ASPI-интерфейс

Выходной формат : Пользовательский кодировщик
Выбранный битрейт : 768 kBit/s
Качество : Высокий
Добавление ID3-тэга : Нет
Утилита сжатия : C:\Program Files\Exact Audio Copy\FLAC\FLAC.EXE
Дополнительные параметры : -6 -V -T "ARTIST=%a" -T "TITLE=%t" -T "ALBUM=%g" -T "DATE=%y" -T "TRACKNUMBER=%n" -T "GENRE=%m" -T "COMMENT=%e" %s -o %d


TOC извлечённого CD

Трек | Старт | Длительность | Начальный сектор | Конечный сектор
---------------------------------------------------------------------
1 | 0:00.00 | 4:31.39 | 0 | 20363
2 | 4:31.39 | 6:31.55 | 20364 | 49743
3 | 11:03.19 | 3:58.68 | 49744 | 67661
4 | 15:02.12 | 5:39.08 | 67662 | 93094
5 | 20:41.20 | 5:38.46 | 93095 | 118490
6 | 26:19.66 | 4:13.61 | 118491 | 137526
7 | 30:33.52 | 6:05.00 | 137527 | 164901
8 | 36:38.52 | 4:31.57 | 164902 | 185283
9 | 41:10.34 | 6:32.04 | 185284 | 214687
10 | 47:42.38 | 3:58.11 | 214688 | 232548
11 | 51:40.49 | 5:36.53 | 232549 | 257801
12 | 57:17.27 | 5:39.05 | 257802 | 283231
13 | 62:56.32 | 6:28.68 | 283232 | 312399
14 | 69:25.25 | 4:15.12 | 312400 | 331536
15 | 73:40.37 | 6:00.74 | 331537 | 358610


Характеристики диапазона извлечения и сообщения об ошибках

Выбранный диапазон

Имя файла F:\Лоси\Destroyers - The Miseries Of Virtue.wav

Пиковый уровень 98.6 %
Качество диапазона 100.0 %
CRC копии F82799BB
Копирование... OK

Ошибок не произошло

Конец отчёта


Megaupload 1

Megaupload 2

Выложил по просьбе darkmen...


Top
 Profile  
 
 
PostPosted: 13 Feb 2010 
труъ антисионист
User avatar
Joined: 01 Aug 2007
Posts: 4544
Lоcаtion: Откуда и большинство из нас
Age: 38
Name: Дядя Вова
Благадарствую, давай ещё! :true:

_________________
Image
Image


Top
 Profile  
 
 
PostPosted: 13 Feb 2010 
Генеральный thrasher
User avatar
Joined: 03 Oct 2008
Posts: 3708
Lоcаtion: Ханты-Мансийский АО
Age: 44
Name: Сергей
Glot wrote:
Благадарствую, давай ещё!


Ты имеешь в виду A Night of the Lusty Queen?


Top
 Profile  
 
 
PostPosted: 13 Feb 2010 
Я набрал 1000 сообщений!
User avatar
Joined: 25 Dec 2008
Posts: 1545
Age: 43
Name: Павел
Серега,спасибо! :true:
А "A Night of the Lusty Queen" на nnm.ru есть на Хэдбэнгере и ссылки еще живы.Вот только там ковриков нету совсем.Сергей,сделать можешь?


Top
 Profile  
 
 
PostPosted: 13 Feb 2010 
Генеральный thrasher
User avatar
Joined: 03 Oct 2008
Posts: 3708
Lоcаtion: Ханты-Мансийский АО
Age: 44
Name: Сергей
hawkhunter wrote:
Серега,спасибо!
А "A Night of the Lusty Queen" на nnm.ru есть на Хэдбэнгере и ссылки еще живы.Вот только там ковриков нету совсем.Сергей,сделать можешь?


Паш , "A Night of the Lusty Queen" у меня вместе с польской версией альбома.19 вещей на компакте.А на Хэдбэнгере такая же версия?Коврики в любом случае сделаю...


Top
 Profile  
 
 
PostPosted: 13 Feb 2010 
Я набрал 1000 сообщений!
User avatar
Joined: 25 Dec 2008
Posts: 1545
Age: 43
Name: Павел
Там 19 трэков,но на польском там 9 трэков-демки и концертные записи с Металмании 87.Польской версии альбома,походу там нет.Посмотри здесь и сравни:
http://nnm.ru/blogs/scaring/destroyers_ ... y_queen_2/


Top
 Profile  
 
 
PostPosted: 13 Feb 2010 
Генеральный thrasher
User avatar
Joined: 03 Oct 2008
Posts: 3708
Lоcаtion: Ханты-Мансийский АО
Age: 44
Name: Сергей
hawkhunter wrote:
Там 19 трэков,но на польском там 9 трэков-демки и концертные записи с Металмании 87.Польской версии альбома,походу там нет.Посмотри здесь и сравни:
http://nnm.ru/blogs/scaring/destroyers_ ... y_queen_2/


Точно.То же самое у меня.Попутал маленько.Толком ещё альбом не слушал.В общем коврики сделаю.Ссылку скину тебе в личку...


Top
 Profile  
 
 
PostPosted: 13 Feb 2010 
Труъ
User avatar
Joined: 15 Dec 2008
Posts: 131
Lоcаtion: Донбасс
Age: 46
Name: Евгений
Спасибо большое! :thanx: Сильная банда!

thorbeorn wrote:
Точно.То же самое у меня.Попутал маленько.Толком ещё альбом не слушал.В общем коврики сделаю.Ссылку скину тебе в личку...

Полный буклет заливали на старом Даркмэне, правда качество неважное...


Top
 Profile  
 
 
PostPosted: 14 Feb 2010 
Хиппей (support team)
User avatar
Joined: 30 Jul 2007
Posts: 112789
Lоcаtion: Киев (Kyiv, UA)
Age: 45
Name: Andrey
:true:

_________________


Top
 Profile E-mail  
 
 
PostPosted: 14 Feb 2010 
Metal Collector
User avatar
Joined: 16 Nov 2008
Posts: 1242
Lоcаtion: Химки
Age: 36
Name: Андрей
Интересно, почему они один трек отсюда выкинули? В оригинале альбом 8-трековый.


Top
 Profile E-mail  
 
 
PostPosted: 17 Feb 2010 
Прокъмитолист
User avatar
Joined: 12 Aug 2007
Posts: 6552
Lоcаtion: Санктъ-Петербуркъ
Age: 51
Name: Олекъ
спасибо за лосика! :thanx:

thorbeorn wrote:
В общем коврики сделаю.Ссылку скину тебе в личку...

тоже встаю в очередь за ковриками на A Night of the Lusty Queen :oops:

_________________
прокъметол - это музыко, от которово есть прок (ы)


Top
 Profile  
 
 
PostPosted: 17 Feb 2010 
Хиппей (support team)
User avatar
Joined: 30 Jul 2007
Posts: 112789
Lоcаtion: Киев (Kyiv, UA)
Age: 45
Name: Andrey
spiralarch wrote:
тоже встаю в очередь за ковриками

О, сделал подписку на личку Олега :dance:

_________________


Top
 Profile E-mail  
 
 
PostPosted: 19 Feb 2010 
Генеральный thrasher
User avatar
Joined: 03 Oct 2008
Posts: 3708
Lоcаtion: Ханты-Мансийский АО
Age: 44
Name: Сергей
В общем раз не одному только Паше надо...Вот коврики на "A Night of the Lusty Queen":

http://ifolder.ru/16489156


Top
 Profile  
 
 
PostPosted: 19 Feb 2010 
труъ антисионист
User avatar
Joined: 01 Aug 2007
Posts: 4544
Lоcаtion: Откуда и большинство из нас
Age: 38
Name: Дядя Вова
И за коврики спасибо тоже.

_________________
Image
Image


Top
 Profile  
 
 
PostPosted: 19 Feb 2010 
Прокъмитолист
User avatar
Joined: 12 Aug 2007
Posts: 6552
Lоcаtion: Санктъ-Петербуркъ
Age: 51
Name: Олекъ
еще раз спасибо, Сергей! :thanx:

_________________
прокъметол - это музыко, от которово есть прок (ы)


Top
 Profile  
 
 
PostPosted: 20 Feb 2010 
Труъ
User avatar
Joined: 15 Dec 2008
Posts: 131
Lоcаtion: Донбасс
Age: 46
Name: Евгений
Спасибо за качественные коврики! :thanx:


Top
 Profile  
 
 
PostPosted: 14 Jan 2011 
Зарегился вот...
Joined: 14 Jan 2011
Posts: 6
Lоcаtion: thailand
Name: motherfucker
Great post thanks...


Top
 Profile E-mail  
 
Display posts from previous:  Sort by  
Post new topic Reply to topic  [ 17 posts ] 

All times are UTC + 3 hours


Who is online

Users browsing this forum: No registered users and 2 guests


You cannot post new topics in this forum
You cannot reply to topics in this forum
You cannot edit your posts in this forum
You cannot delete your posts in this forum
You cannot post attachments in this forum

Search for:
Яндекс.Метрика
Powered by phpBB © 2000, 2002, 2005, 2007 phpBB Group