\m/ 80's metal \m/

Информационно-аналитический форум "80 см пыли" (In Search We Trust) "У нас никто никуда не спешит"
Me For You - http://me-4u.com
It is currently 18 Jul 2019

All times are UTC + 3 hours

Spoiler
Chat - temporary registration for foreign users (please leave your application here)







Post new topic Reply to topic  [ 4 posts ] 
Author Message
 
PostPosted: 17 Jan 2010 
Old Time Rock`n`Roll
User avatar
Joined: 23 Jun 2008
Posts: 3457
Lоcаtion: г.Ульяновск
Age: 40
Name: Константин
Dangerous Toys – Dangerous Toys (1989)

Image

Year: 1992
Style: Glam/Hard Rock, Hair Metal
Country: USA
Format: APE + log + cue + scans & mp3-320
Size: 276 Mb + 95 Mb

Tracklist
01. Teas'n, Pleas'n (3:11)
02. Scared (4:03)
03. Bones In The Gutter (3:26)
04. Take Me Drunk (3:56)
05. Feels Like A Hammer (4:10)
06. Sport'n A Woody (3:20)
07. Queen Of The Nile (3:27)
08. Outlaw (3:21)
09. Here Comes Trouble (3:20)
10. Ten Boots (Stompin') (3:12)
11. That Dog (3:30)

TPT – 39:13

Line-Up
Danny Aaron - Guitar, Backing Vocals
Jason McMaster - Vocals
Mark Geary - Drums
Mike Watson - Bass, Backing Vocals
Scott Dalhover – Guitar

Additional Players:
Paula Salvatore Backing Vocals # 5

Album Credits:
Produced: Max Norman
Engineered: Max Norman
Mixed: Max Norman
Mastered: Bob Ludwig

Additional Credits:
Cover Design/DT's Logo/Mechanical Jack-In-The-Box: The Illusion Factory
Front Cover Illustration: Tommy Pons/The Illusion Factory
Photography: Mark Weiss
Management: TAP/KO Ent. Associates., Encino, CA

Chart Position:
USA # 65

Log
EAC extraction logfile from 6. November 2006, 17:33 for CD
Dangerous Toys / Dangerous Toys

Used drive : HL-DT-STDVDRAM GSA-4120B Adapter: 1 ID: 0
Read mode : Secure with NO C2, accurate stream, disable cache
Read offset correction : 667
Overread into Lead-In and Lead-Out : No

Used output format : C:\Programmi\EAC\eac-0.95b4\MAC.exe (Monkey's Audio Lossless Encoder)
High Lossless Compression

Other options :
Fill up missing offset samples with silence : Yes
Delete leading and trailing silent blocks : No
Installed external ASPI interface


Range status and errors
Selected range
Filename D:\Cd\To Share\Dangerous Toys - 1989 - ST (Eac-Ape) by Sapo Malo (WWR)\Dangerous Toys - Dangerous Toys.wav

Peak level 100.0 %
Range quality 99.9 %
CRC 1DA085E4
Copy OK

No errors occured

End of status report


Cue
REM GENRE "Hard Rock"
REM DATE 1989
REM DISCID 8B09310B
REM COMMENT "ExactAudioCopy v0.95b4"
CATALOG 0000000000000
PERFORMER "Dangerous Toys"
TITLE "Dangerous Toys"
FILE "Dangerous Toys - Dangerous Toys.wav" WAVE
TRACK 01 AUDIO
TITLE "Teas'n, Pleas'n"
PERFORMER "Dangerous Toys"
INDEX 01 00:00:00
TRACK 02 AUDIO
TITLE "Scared"
PERFORMER "Dangerous Toys"
INDEX 01 03:12:62
TRACK 03 AUDIO
TITLE "Bones in The Gutter"
PERFORMER "Dangerous Toys"
INDEX 01 07:16:70
TRACK 04 AUDIO
TITLE "Take me Drunk"
PERFORMER "Dangerous Toys"
INDEX 01 10:43:15
TRACK 05 AUDIO
TITLE "Feels Like a Hammer"
PERFORMER "Dangerous Toys"
INDEX 01 14:40:72
TRACK 06 AUDIO
TITLE "Sport'n a Woody"
PERFORMER "Dangerous Toys"
INDEX 01 18:52:15
TRACK 07 AUDIO
TITLE "Queen of The Nile"
PERFORMER "Dangerous Toys"
INDEX 01 22:20:67
TRACK 08 AUDIO
TITLE "Outlaw"
PERFORMER "Dangerous Toys"
INDEX 01 25:49:12
TRACK 09 AUDIO
TITLE "Here Comes Trouble"
PERFORMER "Dangerous Toys"
INDEX 01 29:10:25
TRACK 10 AUDIO
TITLE "Ten Boots (Stompin')"
PERFORMER "Dangerous Toys"
INDEX 01 32:30:57
TRACK 11 AUDIO
TITLE "That Dog"
PERFORMER "Dangerous Toys"
INDEX 01 35:43:00


Image

APE
narod-APE

mp3-320
megaupload-320

Релиз с MMT, автор рипа – Sapo Malo.
Когда-то Джейсон Макмастер был вокалистом в трэш-проговой команде Watchtower, но потом одумался и нашел свое место на американской сцене. Хороший хард с маленьким привкусом юга, интенсивностью BulletBoys и отличной линией бас-гитары. Продюсером альбома стал Макс Норман, работавший до этого с Ozzy Osbourne, Y&T, Malice,Loudness,Armored Saint, а впоследствие с Megadeth.

Image


Top
 Profile  
 
 
PostPosted: 17 Jan 2010 
хард н хэвщик (support team)
User avatar
Joined: 02 Jun 2008
Posts: 16881
Lоcаtion: Н.Новгород
Age: 32
Name: Артем
лет семь назад , в те редкие моменты , когда удавалось заглянуть в интернет-кафе на один час в неделю, включал хэви гармонию и просматривал дискографии.... однажды попал и на этих, поглядел на картинки , почитал рецензии "vocals like axl rose from Guns n Roses", смачно облизнулся , и продолжил серфинговать по сайту.... :crazy:


Top
 Profile  
 
 
PostPosted: 17 Jan 2010 
Old Time Rock`n`Roll
User avatar
Joined: 23 Jun 2008
Posts: 3457
Lоcаtion: г.Ульяновск
Age: 40
Name: Константин
Да, глотка у Макмастера отменная. Если и уступает Майку Матевицу, то немного.


Top
 Profile  
 
 
PostPosted: 18 Jan 2010 
дядя Миша
User avatar
Joined: 17 Oct 2008
Posts: 3151
Lоcаtion: USSR
Age: 56
Name: Khy
Классная группа , отменный альбом.


Top
 Profile  
 
Display posts from previous:  Sort by  
Post new topic Reply to topic  [ 4 posts ] 

All times are UTC + 3 hours


Who is online

Users browsing this forum: No registered users and 2 guests


You cannot post new topics in this forum
You cannot reply to topics in this forum
You cannot edit your posts in this forum
You cannot delete your posts in this forum
You cannot post attachments in this forum

Search for:
Яндекс.Метрика
Powered by phpBB © 2000, 2002, 2005, 2007 phpBB Group