\m/ 80's metal \m/

Информационно-аналитический форум "80 см пыли" (In Search We Trust) "У нас никто никуда не спешит"
Me For You - http://me-4u.com
It is currently 20 Jul 2019

All times are UTC + 3 hours

Spoiler
Chat - temporary registration for foreign users (please leave your application here)







Post new topic Reply to topic  [ 17 posts ] 
Author Message
 
PostPosted: 17 Jan 2010 
Персональный статус
User avatar
Joined: 02 Feb 2009
Posts: 236
Lоcаtion: Тульская область
Age: 53
Name: Владимир
Damien (US) - 1995 - Angel Juice

Image

<Year:> 1995
<Style:> heavy metal
<Country:> USA
<Format:> FLAC+CUE, Log, Covers
<Source> Demonoid by SacrifyX

<Size:> 349 mb

<Line-up:>
Scott Miller — Vocals
Chuck Stohl — Guitar (Stohl-N)
Kevin "Killer" Kekes — Bass (Chastain, Vainglory)
Rob Brug — Drums

<Tracklist:>
1.Shadows In Darkness — 2:39
2.Silent Rage — 3:48
3.The Polotics Of Pain — 4:21
4.The Rite — 4:19
5.Broken Neck — 2:55
6.Death March — 3:27
7.Perpetual Sleep — 6:36
8.The Awakening — 0:55
9.Vlad — 3:19
10.Retribution — 4:48
11.Turn The Key — 3:23
12.The Legend Of Trotis — 8:51
13.Unlisted Track — 1:10

LOG
Exact Audio Copy V0.99 prebeta 4 from 23. January 2008

EAC extraction logfile from 14. January 2010, 20:14

Damien / Angel Juice (MSR9862-3)

Used drive : HL-DT-STDVDRAM GH22NS50 Adapter: 2 ID: 0

Read mode : Secure
Utilize accurate stream : Yes
Defeat audio cache : Yes
Make use of C2 pointers : No

Read offset correction : 667
Overread into Lead-In and Lead-Out : No
Fill up missing offset samples with silence : Yes
Delete leading and trailing silent blocks : No
Null samples used in CRC calculations : No
Used interface : Native Win32 interface for Win NT & 2000

Used output format : User Defined Encoder
Selected bitrate : 1024 kBit/s
Quality : High
Add ID3 tag : No
Command line compressor : C:\Program Files\Exact Audio Copy\FLAC\FLAC.EXE
Additional command line options : -6 -V -T "ARTIST=%a" -T "TITLE=%t" -T "ALBUM=%g" -T "DATE=%y" -T "TRACKNUMBER=%n" -T "GENRE=%m" -T "COMMENT=%e" %s -o %d


TOC of the extracted CD

Track | Start | Length | Start sector | End sector
---------------------------------------------------------
1 | 0:00.00 | 2:41.57 | 0 | 12131
2 | 2:41.57 | 3:48.55 | 12132 | 29286
3 | 6:30.37 | 4:21.45 | 29287 | 48906
4 | 10:52.07 | 4:21.13 | 48907 | 68494
5 | 15:13.20 | 2:55.67 | 68495 | 81686
6 | 18:09.12 | 3:29.40 | 81687 | 97401
7 | 21:38.52 | 6:36.70 | 97402 | 127171
8 | 28:15.47 | 0:55.55 | 127172 | 131351
9 | 29:11.27 | 3:22.38 | 131352 | 146539
10 | 32:33.65 | 4:50.20 | 146540 | 168309
11 | 37:24.10 | 3:23.40 | 168310 | 183574
12 | 40:47.50 | 8:51.25 | 183575 | 223424
13 | 49:39.00 | 1:10.50 | 223425 | 228724


Range status and errors

Selected range

Filename C:\Documents and Settings\Owner\Desktop\Damien Complete Collection by SacrifyX\Angel Juice (Original 1st Press - MSR9862-3)\Damien - Angel Juice (MSR9862-3).wav

Peak level 95.5 %
Range quality 99.9 %
Copy CRC EC340353
Copy OK

No errors occurred


AccurateRip summary

Track 1 not present in database
Track 2 not present in database
Track 3 not present in database
Track 4 not present in database
Track 5 not present in database
Track 6 not present in database
Track 7 not present in database
Track 8 not present in database
Track 9 not present in database
Track 10 not present in database
Track 11 not present in database
Track 12 not present in database
Track 13 not present in database

None of the tracks are present in the AccurateRip database

End of status report

CUE
REM GENRE "Heavy Metal"
REM DATE 1995
REM DISCID B70BE90D
REM COMMENT "EvilDeadRules99@Hotmail.com"
PERFORMER "Damien"
TITLE "Angel Juice (MSR9862-3)"
FILE "Damien - Angel Juice (MSR9862-3).flac" WAVE
TRACK 01 AUDIO
TITLE "Shadows In Darkness"
PERFORMER "Damien"
INDEX 01 00:00:00
TRACK 02 AUDIO
TITLE "Silent Rage"
PERFORMER "Damien"
INDEX 00 02:39:32
INDEX 01 02:41:57
TRACK 03 AUDIO
TITLE "The Polotics Of Pain"
PERFORMER "Damien"
INDEX 01 06:30:37
TRACK 04 AUDIO
TITLE "The Rite"
PERFORMER "Damien"
INDEX 01 10:52:07
TRACK 05 AUDIO
TITLE "Broken Neck"
PERFORMER "Damien"
INDEX 00 15:11:40
INDEX 01 15:13:20
TRACK 06 AUDIO
TITLE "Death March"
PERFORMER "Damien"
INDEX 01 18:09:12
TRACK 07 AUDIO
TITLE "Perpetual Sleep"
PERFORMER "Damien"
INDEX 00 21:36:45
INDEX 01 21:38:52
TRACK 08 AUDIO
TITLE "The Awakening"
PERFORMER "Damien"
INDEX 01 28:15:47
TRACK 09 AUDIO
TITLE "Vlad"
PERFORMER "Damien"
INDEX 01 29:11:27
TRACK 10 AUDIO
TITLE "Retribution"
PERFORMER "Damien"
INDEX 00 32:30:72
INDEX 01 32:33:65
TRACK 11 AUDIO
TITLE "Turn The Key"
PERFORMER "Damien"
INDEX 00 37:22:60
INDEX 01 37:24:10
TRACK 12 AUDIO
TITLE "The Legend Of Trotis"
PERFORMER "Damien"
INDEX 01 40:47:50
TRACK 13 AUDIO
TITLE "Unlisted Track"
PERFORMER "Damien"
INDEX 01 49:39:00


http://ifolder.ru/15968252
http://ifolder.ru/15968253
http://ifolder.ru/15968254
http://ifolder.ru/15968255

PASS - MU

_________________
http://img254.imageshack.us/img254/1015 ... 743574.gif
http://img140.imageshack.us/img140/7192 ... arlogo.jpg


Last edited by crimson22 on 17 Jan 2010, edited 1 time in total.

Top
 Profile  
 
 
PostPosted: 17 Jan 2010 
Анатолий
User avatar
Joined: 18 Oct 2008
Posts: 3506
Lоcаtion: Армавир
Age: 42
Name: Анатолий
crimson22

Вот спасибо, так спасибо! :thanx:


Top
 Profile E-mail  
 
 
PostPosted: 17 Jan 2010 
Я набрал 1000 сообщений!
User avatar
Joined: 25 Dec 2008
Posts: 1545
Age: 43
Name: Павел
И за этот спасибо огромное.Пишут,что здесь начались эксперименты с альтернативой,хотя я еще не слушал.


Top
 Profile  
 
 
PostPosted: 17 Jan 2010 
А может смените мне статус?..
User avatar
Joined: 24 Dec 2008
Posts: 645
Age: 45
Name: Дмитрий
Спасибо! :thanx:


Top
 Profile  
 
 
PostPosted: 17 Jan 2010 
Хиппей (support team)
User avatar
Joined: 30 Jul 2007
Posts: 113555
Lоcаtion: Киев (Kyiv, UA)
Age: 46
Name: Andrey
crimson22 wrote:
PASS - MU

Типа Metal Union?

_________________


Top
 Profile E-mail  
 
 
PostPosted: 17 Jan 2010 
Персональный статус
User avatar
Joined: 02 Feb 2009
Posts: 236
Lоcаtion: Тульская область
Age: 53
Name: Владимир
Scatterbrain wrote:
crimson22 wrote:
PASS - MU

Типа Metal Union?

Совершенно верно, планировал туда, но глянул здесь запросы и сдублировал.

_________________
http://img254.imageshack.us/img254/1015 ... 743574.gif
http://img140.imageshack.us/img140/7192 ... arlogo.jpg


Top
 Profile  
 
 
PostPosted: 18 Jan 2010 
Хиппей (support team)
User avatar
Joined: 30 Jul 2007
Posts: 113555
Lоcаtion: Киев (Kyiv, UA)
Age: 46
Name: Andrey
Ок, понял. Принимается. Спасибо.
Только вот нафига все ж пароли люди ставят? :vic:

_________________


Top
 Profile E-mail  
 
 
PostPosted: 18 Jan 2010 
Персональный статус
User avatar
Joined: 02 Feb 2009
Posts: 236
Lоcаtion: Тульская область
Age: 53
Name: Владимир
Предположим, я заинтересован в нераспространении аудиопродукции (и не только), в свободное время пробегаюсь по файлообменникам и натыкаюсь (о ужас) на залежи. Ведь содержимое можно просмотреть свободно, а являясь правообладателем обращаемся к хозяину обменника с законными правами и естесственно удаляем файлы с сервера.

_________________
http://img254.imageshack.us/img254/1015 ... 743574.gif
http://img140.imageshack.us/img140/7192 ... arlogo.jpg


Top
 Profile  
 
 
PostPosted: 18 Jan 2010 
Хиппей (support team)
User avatar
Joined: 30 Jul 2007
Posts: 113555
Lоcаtion: Киев (Kyiv, UA)
Age: 46
Name: Andrey
Ну и шо? С паролем разве не удалят? :crazy: Или зашифрованный файл, сокращенный до гласных букв? Не смешите мои эти... как их. Босоножки :cow:

_________________


Top
 Profile E-mail  
 
 
PostPosted: 18 Jan 2010 
Персональный статус
User avatar
Joined: 02 Feb 2009
Posts: 236
Lоcаtion: Тульская область
Age: 53
Name: Владимир
Удалят, если поймут что такое Dam95Angel.rar. Ты меня через полгода спроси что это за файл и я не отвечу.
И вообще, береженого бог бережет.

_________________
http://img254.imageshack.us/img254/1015 ... 743574.gif
http://img140.imageshack.us/img140/7192 ... arlogo.jpg


Top
 Profile  
 
 
PostPosted: 18 Jan 2010 
Хиппей (support team)
User avatar
Joined: 30 Jul 2007
Posts: 113555
Lоcаtion: Киев (Kyiv, UA)
Age: 46
Name: Andrey
crimson22 wrote:
Удалят

Ок, чего у меня за 2-3 года ни одного файла не удалили ни с одного обменника?
Только после того, как у него срок хранения вышел, но это отдельная история.

crimson22 wrote:
Ты меня через полгода спроси что это за файл и я не отвечу

Воть. Так зачем тогда сокращать и паролить? :starz:

_________________


Top
 Profile E-mail  
 
 
PostPosted: 18 Jan 2010 
Персональный статус
User avatar
Joined: 02 Feb 2009
Posts: 236
Lоcаtion: Тульская область
Age: 53
Name: Владимир
Scatterbrain wrote:
...Ок, чего у меня за 2-3 года ни одного файла не удалили ни с одного обменника?

Мега не трогает, но туда я паролю. Фолдырь убил только за этот год (2009) половину залитого уже в этом году.

Scatterbrain wrote:
...С паролем разве не удалят? :crazy: Или зашифрованный файл, сокращенный до гласных букв?...

А какие основания удалять непонятный файл?

Scatterbrain wrote:
..Воть. Так зачем тогда сокращать и паролить? :starz:

Для того чтобы файл был непонятным :crazy:

_________________
http://img254.imageshack.us/img254/1015 ... 743574.gif
http://img140.imageshack.us/img140/7192 ... arlogo.jpg


Top
 Profile  
 
 
PostPosted: 19 Jan 2010 
Хиппей (support team)
User avatar
Joined: 30 Jul 2007
Posts: 113555
Lоcаtion: Киев (Kyiv, UA)
Age: 46
Name: Andrey
crimson22 wrote:
Фолдырь убил только за этот год (2009) половину залитого уже в этом году

Володь, а ты срок ссылкам продлевал?
crimson22 wrote:
А какие основания удалять непонятный файл?

Истёк срок хранения на сервере.

_________________


Top
 Profile E-mail  
 
 
PostPosted: 19 Jan 2010 
Персональный статус
User avatar
Joined: 02 Feb 2009
Posts: 236
Lоcаtion: Тульская область
Age: 53
Name: Владимир
Scatterbrain wrote:
Володь, а ты срок ссылкам продлевал?

Методично и скурпурпулезно до момента обнаружения массового удаления файлов.
С того времени откровенно забил на это дело, быстрее заново перезалить
чем обновлять ссылки, меньше времени уходит. А пароль - ну отчасти паранойя.

_________________
http://img254.imageshack.us/img254/1015 ... 743574.gif
http://img140.imageshack.us/img140/7192 ... arlogo.jpg


Top
 Profile  
 
 
PostPosted: 20 Jan 2010 
спирт 100%
User avatar
Joined: 22 Sep 2008
Posts: 4443
Age: 47
Name: Саня
Большое Спасибо!!! :thanx: :true:


Top
 Profile  
 
 
PostPosted: 31 Jan 2010 
Прокъмитолист
User avatar
Joined: 12 Aug 2007
Posts: 6577
Lоcаtion: Санктъ-Петербуркъ
Age: 51
Name: Олекъ
и за этот спасибо! :thanx:

_________________
прокъметол - это музыко, от которово есть прок (ы)


Top
 Profile  
 
 
PostPosted: 22 Feb 2010 
Old Time Rock`n`Roll
User avatar
Joined: 23 Jun 2008
Posts: 3461
Lоcаtion: г.Ульяновск
Age: 40
Name: Константин
Спасибо :thanx:


Top
 Profile  
 
Display posts from previous:  Sort by  
Post new topic Reply to topic  [ 17 posts ] 

All times are UTC + 3 hours


Who is online

Users browsing this forum: No registered users and 1 guest


You cannot post new topics in this forum
You cannot reply to topics in this forum
You cannot edit your posts in this forum
You cannot delete your posts in this forum
You cannot post attachments in this forum

Search for:
Яндекс.Метрика
Powered by phpBB © 2000, 2002, 2005, 2007 phpBB Group