\m/ 80's metal \m/

Информационно-аналитический форум "80 см пыли" (In Search We Trust) "У нас никто никуда не спешит"
Me For You - http://me-4u.com
It is currently 23 Aug 2019

All times are UTC + 3 hours

Spoiler
Chat - temporary registration for foreign users (please leave your application here)







Post new topic Reply to topic  [ 7 posts ] 
Author Message
 
PostPosted: 17 Jan 2010 
Персональный статус
User avatar
Joined: 02 Feb 2009
Posts: 236
Lоcаtion: Тульская область
Age: 53
Name: Владимир
Damien (US) - 1989 - Stop This War

Image

<Year:> 1989
<Style:> heavy metal
<Country:> USA
<Format:> FLAC+CUE, Log, Covers
<Source> Demonoid by SacrifyX

<Size:> 278 mb

<Line-up:>
Randy "Wolf" Mikelson — Vocals
Chuck Stohl — Guitar (Stohl-N)
Fritz Adamshick — Rhythm Guitar, Backing Vocals
Kevin "Killer" Kekes — Bass (Chastain, Vainglory)
Johnny "Evil" Cappelletty — Drums, Backing Vocals

<Tracklist:>
1. Stop This War 04:56
2. Break Out 03:37
3. Rising Dawn 05:25
4. Matilda 04:05
5. 30 St. Clair 02:52
6. Stormwind 04:56
7. Warlord 03:02
8. Always In Lust 04:37
9. The Priests Are Coming 04:39
10. Corpse Grinder 03:07
Total playing time 41:00

LOG
Exact Audio Copy V0.99 prebeta 4 from 23. January 2008

EAC extraction logfile from 14. January 2010, 15:12

Damien / Stop This War (MMD-32886)

Used drive : HL-DT-STDVDRAM GH22NS50 Adapter: 2 ID: 0

Read mode : Secure
Utilize accurate stream : Yes
Defeat audio cache : Yes
Make use of C2 pointers : No

Read offset correction : 667
Overread into Lead-In and Lead-Out : No
Fill up missing offset samples with silence : Yes
Delete leading and trailing silent blocks : No
Null samples used in CRC calculations : No
Used interface : Native Win32 interface for Win NT & 2000

Used output format : User Defined Encoder
Selected bitrate : 1024 kBit/s
Quality : High
Add ID3 tag : No
Command line compressor : C:\Program Files\Exact Audio Copy\FLAC\FLAC.EXE
Additional command line options : -6 -V -T "ARTIST=%a" -T "TITLE=%t" -T "ALBUM=%g" -T "DATE=%y" -T "TRACKNUMBER=%n" -T "GENRE=%m" -T "COMMENT=%e" %s -o %d


TOC of the extracted CD

Track | Start | Length | Start sector | End sector
---------------------------------------------------------
1 | 0:00.00 | 5:01.30 | 0 | 22604
2 | 5:01.30 | 3:42.35 | 22605 | 39289
3 | 8:43.65 | 5:30.18 | 39290 | 64057
4 | 14:14.08 | 4:04.35 | 64058 | 82392
5 | 18:18.43 | 2:58.07 | 82393 | 95749
6 | 21:16.50 | 5:04.45 | 95750 | 118594
7 | 26:21.20 | 3:09.48 | 118595 | 132817
8 | 29:30.68 | 4:34.27 | 132818 | 153394
9 | 34:05.20 | 4:43.03 | 153395 | 174622
10 | 38:48.23 | 3:16.52 | 174623 | 189374


Range status and errors

Selected range

Filename C:\Documents and Settings\Owner\Desktop\Damien Complete Collection by SacrifyX\Stop This War (Orginial 1st Press - MMD-32886)\Damien - Stop This War (MMD-32886).wav

Peak level 100.0 %
Range quality 99.9 %
Copy CRC 8FF08CC4
Copy OK

No errors occurred


AccurateRip summary

Track 1 not present in database
Track 2 not present in database
Track 3 not present in database
Track 4 not present in database
Track 5 not present in database
Track 6 not present in database
Track 7 not present in database
Track 8 not present in database
Track 9 not present in database
Track 10 not present in database

None of the tracks are present in the AccurateRip database

End of status report

CUE
REM GENRE "Heavy Metal"
REM DATE 1989
REM DISCID 7209DD0A
REM COMMENT "EvilDeadRules99@Hotmail.com"
PERFORMER "Damien"
TITLE "Stop This War (MMD-32886)"
FILE "Damien - Stop This War (MMD-32886).flac" WAVE
TRACK 01 AUDIO
TITLE "Stop This War"
PERFORMER "Damien"
INDEX 01 00:00:00
TRACK 02 AUDIO
TITLE "Break Out"
PERFORMER "Damien"
INDEX 00 04:57:40
INDEX 01 05:01:30
TRACK 03 AUDIO
TITLE "Rising Out"
PERFORMER "Damien"
INDEX 00 08:39:73
INDEX 01 08:43:65
TRACK 04 AUDIO
TITLE "Matilda"
PERFORMER "Damien"
INDEX 00 14:09:68
INDEX 01 14:14:08
TRACK 05 AUDIO
TITLE "30 St. Clair"
PERFORMER "Damien"
INDEX 00 18:17:27
INDEX 01 18:18:43
TRACK 06 AUDIO
TITLE "Stormwind"
PERFORMER "Damien"
INDEX 00 21:14:33
INDEX 01 21:16:50
TRACK 07 AUDIO
TITLE "Warlord"
PERFORMER "Damien"
INDEX 01 26:21:20
TRACK 08 AUDIO
TITLE "Always In Lust"
PERFORMER "Damien"
INDEX 00 29:27:53
INDEX 01 29:30:68
TRACK 09 AUDIO
TITLE "The Priests Are Coming"
PERFORMER "Damien"
INDEX 00 34:02:35
INDEX 01 34:05:20
TRACK 10 AUDIO
TITLE "Corpse Grinder"
PERFORMER "Damien"
INDEX 00 38:45:25
INDEX 01 38:48:23


http://ifolder.ru/15966248
http://ifolder.ru/15966249
http://ifolder.ru/15966250

PASS - MU

_________________
http://img254.imageshack.us/img254/1015 ... 743574.gif
http://img140.imageshack.us/img140/7192 ... arlogo.jpg


Top
 Profile  
 
 
PostPosted: 17 Jan 2010 
Генеральный thrasher
User avatar
Joined: 03 Oct 2008
Posts: 3717
Lоcаtion: Ханты-Мансийский АО
Age: 44
Name: Сергей
Спасибо,Владимир!Особо за ifolder...


Top
 Profile  
 
 
PostPosted: 17 Jan 2010 
Я набрал 1000 сообщений!
User avatar
Joined: 25 Dec 2008
Posts: 1545
Age: 43
Name: Павел
Спасибо!Дебютник у них вообще убойный!


Top
 Profile  
 
 
PostPosted: 17 Jan 2010 
udo
User avatar
Joined: 01 Mar 2008
Posts: 2343
Lоcаtion: Краснодар
Age: 48
Name: РОМАН
знатный альбом спасибо


Top
 Profile E-mail  
 
 
PostPosted: 28 Jan 2010 
Прокъмитолист
User avatar
Joined: 12 Aug 2007
Posts: 6593
Lоcаtion: Санктъ-Петербуркъ
Age: 51
Name: Олекъ
мои благодарности, Володя! :true:

_________________
прокъметол - это музыко, от которово есть прок (ы)


Top
 Profile  
 
 
PostPosted: 30 Jan 2010 
Дежурный по КУПу
User avatar
Joined: 17 Aug 2007
Posts: 5871
Age: 51
Name: Ге
:thanx:

_________________
http://jp-mania.ru/
http://jp-tourdates.ucoz.ru/


Top
 Profile  
 
 
PostPosted: 08 Mar 2010 
metallpaparazzy
User avatar
Joined: 20 Dec 2009
Posts: 674
Lоcаtion: Днепропетровск
Age: 44
Name: Геннадий
Велыке дякую!!! албум супер :true: :meloman:


Top
 Profile E-mail  
 
Display posts from previous:  Sort by  
Post new topic Reply to topic  [ 7 posts ] 

All times are UTC + 3 hours


Who is online

Users browsing this forum: No registered users and 3 guests


You cannot post new topics in this forum
You cannot reply to topics in this forum
You cannot edit your posts in this forum
You cannot delete your posts in this forum
You cannot post attachments in this forum

Search for:
Яндекс.Метрика
Powered by phpBB © 2000, 2002, 2005, 2007 phpBB Group