\m/ 80's metal \m/

Информационно-аналитический форум "80 см пыли" (In Search We Trust) "У нас никто никуда не спешит"
Me For You - http://me-4u.com
It is currently 22 May 2019

All times are UTC + 3 hours

Spoiler
Chat - temporary registration for foreign users (please leave your application here)







Post new topic Reply to topic  [ 1 post ] 
Author Message
 
PostPosted: 01 Jan 2010 
Old Time Rock`n`Roll
User avatar
Joined: 23 Jun 2008
Posts: 3419
Lоcаtion: г.Ульяновск
Age: 40
Name: Константин
Danger Danger – Screw It! (1991)

Image

Year: 1991
Style: Hard Rock,Hair Metal
Country: USA
Format: APE + log + cue + scans
Size: 395 Mb

Tracklist
01. Ginger Snaps (intro)/Monkey Business (5:22)
02. Slipped Her The Big One (5:23)
03. C'est Loupe (prelude)/Beat The Bullet (4:53)
04. I Still Think About You (4:36)
05. Get Your Shit Together (4:41)
06. Crazy Nites (4:14)
07. Puppet Show (1:20)
08. Everybody Wants Some (4:15)
09. Don't Blame It On Love (3:58)
10. Comin' Home (4:39)
11. Horny S.O.B. (3:22)
12. Find Your Way Back Home (6:14)
13. Yeah, You Want It! (3:34)
14. D.F.N.S. (:50)

TPT – 57:31

Line-Up
Andy Timmons - Guitars, Vocals
Bruno Ravel - Bass, Cello, Vocals
Kasey Smith - Keyboards
Steve West - Drums, Vocals
Ted Poley - Vocals

Album Credits:
Produced: Bruno Ravel/Steve West
Co-produced: Erwin Musper
Engineered: Erwin Musper
Mixed: Erwin Musper
Mastered: Erwin Musper

Chart Position:
USA # 123

Charting Singles:
I Still Think About You USA # 46

Log
EAC extraction logfile from 28. May 2008, 10:24 for CD
Danger Danger / Screw It

Used drive : PIONEER DVD-RW DVR-115D Adapter: 5 ID: 1
Read mode : Secure with NO C2, accurate stream, disable cache
Read offset correction : 48
Overread into Lead-In and Lead-Out : No

Used output format : C:\Programmi\Exact Audio Copy\MAC.EXE (Monkey's Audio Lossless Encoder)
High Lossless Compression

Other options :
Fill up missing offset samples with silence : Yes
Delete leading and trailing silent blocks : No
Native Win32 interface for Win NT & 2000


Range status and errors
Selected range
Filename C:\Documents and Settings\oem\Documenti\Musica\Danger Danger - Screw It\Danger Danger - Screw It.wav.wav

Peak level 87.0 %
Range quality 100.0 %
CRC 02335E5B
Copy OK

No errors occured

End of status report


Cue
REM GENRE "Hard Rock"
REM DATE 1991
REM DISCID F40D7B10
REM COMMENT "ExactAudioCopy v0.95b4"
PERFORMER "Danger Danger"
TITLE "Screw It"
FILE "Danger Danger - Screw It.wav" WAVE
TRACK 01 AUDIO
TITLE "Ginger Snaps (Intro)"
PERFORMER "Danger Danger"
INDEX 01 00:00:00
TRACK 02 AUDIO
TITLE "Monkey Business"
PERFORMER "Danger Danger"
INDEX 01 01:03:37
TRACK 03 AUDIO
TITLE "Slipped Her The Big One"
PERFORMER "Danger Danger"
INDEX 01 05:24:07
TRACK 04 AUDIO
TITLE "C'est Loupe (Prelude)"
PERFORMER "Danger Danger"
INDEX 01 10:47:32
TRACK 05 AUDIO
TITLE "Beat The Bullet"
PERFORMER "Danger Danger"
INDEX 01 11:35:10
TRACK 06 AUDIO
TITLE "I Still Think About You"
PERFORMER "Danger Danger"
INDEX 01 15:40:22
TRACK 07 AUDIO
TITLE "Get Your S**t Together"
PERFORMER "Danger Danger"
INDEX 01 20:16:45
TRACK 08 AUDIO
TITLE "Crazy Nites"
PERFORMER "Danger Danger"
INDEX 01 24:57:70
TRACK 09 AUDIO
TITLE "Puppet Show"
PERFORMER "Danger Danger"
INDEX 01 29:11:35
TRACK 10 AUDIO
TITLE "Everybody Wants Some"
PERFORMER "Danger Danger"
INDEX 01 30:33:20
TRACK 11 AUDIO
TITLE "Don't Blame It On Love"
PERFORMER "Danger Danger"
INDEX 01 34:49:11
TRACK 12 AUDIO
TITLE "Comin' Home"
PERFORMER "Danger Danger"
INDEX 01 38:46:71
TRACK 13 AUDIO
TITLE "Horny S.O.B."
PERFORMER "Danger Danger"
INDEX 01 43:26:22
TRACK 14 AUDIO
TITLE "Find Your Way Back Home"
PERFORMER "Danger Danger"
INDEX 01 46:49:22
TRACK 15 AUDIO
TITLE "Yeah, You Want It!"
PERFORMER "Danger Danger"
INDEX 01 53:03:30
TRACK 16 AUDIO
TITLE "D.F.N.S."
PERFORMER "Danger Danger"
INDEX 01 56:37:47


APE-narod
narod-APE


Какой же все-таки ядреный боевик Horny Son Of The Bitch, побольше бы таких вещей.
Релиз с ММТ, автор рипа - rockberto
мп-320 можно найти на доке Неоновые Огни

Image


Top
 Profile  
 
Display posts from previous:  Sort by  
Post new topic Reply to topic  [ 1 post ] 

All times are UTC + 3 hours


Who is online

Users browsing this forum: No registered users and 1 guest


You cannot post new topics in this forum
You cannot reply to topics in this forum
You cannot edit your posts in this forum
You cannot delete your posts in this forum
You cannot post attachments in this forum

Search for:
Яндекс.Метрика
Powered by phpBB © 2000, 2002, 2005, 2007 phpBB Group