\m/ 80's metal \m/

Информационно-аналитический форум "80 см пыли" (In Search We Trust) "У нас никто никуда не спешит"
Me For You - http://me-4u.com
It is currently 22 Aug 2019

All times are UTC + 3 hours

Spoiler
Chat - temporary registration for foreign users (please leave your application here)







Post new topic Reply to topic  [ 14 posts ] 
Author Message
 
PostPosted: 04 Dec 2009 
Работнечег
User avatar
Joined: 28 Aug 2007
Posts: 5939
Lоcаtion: г. Москва
Age: 30
Name: Дима
Image

Band: Defender
Album: They Came Over The High Pass
Label: Necropolis Records
Genre: Heavy/Power Metal
Country: Sweden
Format: Flac + Log + Cue
Size: 302 Mb

Line-Up:
Philip von Segebaden - Guitar, Bass, Backing Vocals (Afflicted, Cranium (Swe), Dawn (Swe), Legion (Swe))
Michael van der Graaf - Session Lead Vocals (Afflicted)
Peter Nagy - Session Drums (Eternal Oath (Swe), Hypocrite (Swe), Mörk Gryning, Wyvern (Swe))


Tracklist:
1. They Came Over the High Pass (Intro) 02:22
2. The Siege of Armengar 04:01
3. High Himalayan Valley 08:53
4. Summit Day (Instrumental) 05:08
5. Dragon 06:53
6. City In The Clouds 05:42
7. Maze of the Minotaur (Instrumental) 03:10
8. Nomads of the Stars 06:40
Total playing time 42:49

LOG
Exact Audio Copy V0.99 prebeta 5 from 4. May 2009

Отчёт EAC об извлечении, выполненном 3. декабря 2009, 17:00

Defender / They Came Over The High Pass

Дисковод: PIONEER DVD-RW DVR-116D Adapter: 0 ID: 0

Режим чтения : Достоверность
Использование точного потока : Да
Отключение кэша аудио : Да
Использование указателей C2 : Нет

Коррекция смещения при чтении : 96
Способность читать области Lead-in и Lead-out : Нет
Заполнение пропущенных сэмплов тишиной : Да
Удаление блоков с тишиной в начале и конце : Нет
При вычислениях CRC использовались нулевые сэмплы : Да
Интерфейс : Встроенный Win32-интерфейс для Win NT/2000

Выходной формат : Пользовательский кодировщик
Выбранный битрейт : 32 kBit/s
Качество : Высокий
Добавление ID3-тэга : Нет
Утилита сжатия : C:\Program Files\Exact Audio Copy\Flac\flac.exe
Дополнительные параметры : -6 -V %s


TOC извлечённого CD

Трек | Старт | Длительность | Начальный сектор | Конечный сектор
---------------------------------------------------------------------
1 | 0:00.00 | 2:22.10 | 0 | 10659
2 | 2:22.10 | 4:01.32 | 10660 | 28766
3 | 6:23.42 | 8:53.28 | 28767 | 68769
4 | 15:16.70 | 5:10.12 | 68770 | 92031
5 | 20:27.07 | 6:53.40 | 92032 | 123046
6 | 27:20.47 | 5:44.25 | 123047 | 148871
7 | 33:04.72 | 3:11.05 | 148872 | 163201
8 | 36:16.02 | 6:40.50 | 163202 | 193251


Характеристики диапазона извлечения и сообщения об ошибках

Выбранный диапазон

Имя файла D:\Музыка\Lossless\Defender - They Came Over The High Pass (1999)\Defender - They Came Over The High Pass.wav

Пиковый уровень 99.8 %
Качество диапазона 99.9 %
CRC копии 59FCFA18
Копирование... OK

Ошибок не произошло


AccurateRip: сводка

Трек 1 точное извлечение (доверие 2) [56C703FA]
Трек 2 точное извлечение (доверие 2) [6F1D14A6]
Трек 3 точное извлечение (доверие 2) [894FA897]
Трек 4 точное извлечение (доверие 2) [2CD74B26]
Трек 5 точное извлечение (доверие 2) [B2AE6080]
Трек 6 точное извлечение (доверие 2) [6DEA772B]
Трек 7 точное извлечение (доверие 2) [D63613D1]
Трек 8 точное извлечение (доверие 2) [FB23887E]

Все треки извлечены точно

Конец отчёта

CUE
REM GENRE "Power Metal"
REM DATE 1999
REM DISCID 720A1008
REM COMMENT "ExactAudioCopy v0.99pb5"
PERFORMER "Defender"
TITLE "They Came Over The High Pass"
FILE "Defender - They Came Over The High Pass.flac" WAVE
TRACK 01 AUDIO
TITLE "They Came Over The High Pass"
PERFORMER "Defender"
INDEX 01 00:00:00
TRACK 02 AUDIO
TITLE "The Siege Of Armengar"
PERFORMER "Defender"
INDEX 01 02:22:10
TRACK 03 AUDIO
TITLE "High Himalayan Valley"
PERFORMER "Defender"
INDEX 01 06:23:42
TRACK 04 AUDIO
TITLE "Summit Day"
PERFORMER "Defender"
INDEX 01 15:16:70
TRACK 05 AUDIO
TITLE "Dragon"
PERFORMER "Defender"
INDEX 00 20:25:52
INDEX 01 20:27:07
TRACK 06 AUDIO
TITLE "City In The Clouds"
PERFORMER "Defender"
INDEX 01 27:20:47
TRACK 07 AUDIO
TITLE "Maze Of The Minotaur"
PERFORMER "Defender"
INDEX 00 33:03:50
INDEX 01 33:04:72
TRACK 08 AUDIO
TITLE "Nomads Of The Stars"
PERFORMER "Defender"
INDEX 01 36:16:02

Spectrum
Image


Narod.Ru

Рецензия:
"Чисто студийный проект басо-гитариста Филипа вон Сегебадена, участвовавшего в таких группах, так Cranium, Afflicted, Dawn, Legion...
Собрались как-то Сегебаден, ван дер Грааф (который тоже из Аффликтеда, но здесь запел чистым войсом), Наги (Мёрк Грайнинг) и сообразили на троих почти фолк-металлический альбом в духе Bathory, только за основу взяли старый хэви (образца Iron Maiden 80-х), смешав его чуток с модным павером. Получилась весьма интересная и забавная работа. Героическая такая, конно-будёновская. Про драконов, викингов и других мифических созданиях. Хм, вроде обошлось на сей раз без труъ-металлических хомячков и гоблинов
Местами шведская лирика вообще радует до ератишной чесотки

5/5"
by Scatterbrain

С рецой согласен, только фолка здесь нет, имхо.По стилю может быть ближе к epic heavy.Музыка чуть более быстрее среднетемповой.Цепляющие мелодии + хороший вокал, вот залог отличного альбома)
P.S. сканы позже.Никого лог на русском языке не напрягает?а то некоторые не воспринимают...


Top
 Profile E-mail  
 
 
PostPosted: 04 Dec 2009 
Я набрал 1000 сообщений!
User avatar
Joined: 25 Dec 2008
Posts: 1545
Age: 43
Name: Павел
Дима,спасибо! :gra: Собственно,заинтересовался этим проектом из-за Afflicted,которые записали пару альбомов.Первый-дэт с особыми фишками,а вот второй-уже хороший пауэр-спид.


Top
 Profile  
 
 
PostPosted: 05 Dec 2009 
А может смените мне статус?..
Joined: 03 Jul 2009
Posts: 880
Lоcаtion: Serbia
Name: Laki
Thank you :dance:


Top
 Profile E-mail  
 
 
PostPosted: 05 Dec 2009 
Прокъмитолист
User avatar
Joined: 12 Aug 2007
Posts: 6590
Lоcаtion: Санктъ-Петербуркъ
Age: 51
Name: Олекъ
неплохой альбомчег. может тоже когданить зарелизю :oops:

_________________
прокъметол - это музыко, от которово есть прок (ы)


Top
 Profile  
 
 
PostPosted: 06 Dec 2009 
Работнечег
User avatar
Joined: 28 Aug 2007
Posts: 5939
Lоcаtion: г. Москва
Age: 30
Name: Дима
Defender - They Came Over The High Pass (1999) scans


Top
 Profile E-mail  
 
 
PostPosted: 06 Dec 2009 
Труъ
User avatar
Joined: 14 Jul 2009
Posts: 158
Lоcаtion: Hell Is Here
Age: 49
Name: Adriano
church, Thank You Very Much !! :thanx:


Top
 Profile E-mail  
 
 
PostPosted: 06 Dec 2009 
А может смените мне статус?..
User avatar
Joined: 24 Dec 2008
Posts: 647
Age: 45
Name: Дмитрий
Спасибо, не слышал таких.


Top
 Profile  
 
 
PostPosted: 07 Dec 2009 
Хиппей (support team)
User avatar
Joined: 30 Jul 2007
Posts: 114037
Lоcаtion: Киев (Kyiv, UA)
Age: 46
Name: Andrey
Тьху, начал читать ревьюшку и чуть не упал. Как-то странно кто-то пишет... :crazy:

Димка, спасибо за лося :true:

_________________


Top
 Profile E-mail  
 
 
PostPosted: 07 Dec 2009 
Работнечег
User avatar
Joined: 28 Aug 2007
Posts: 5939
Lоcаtion: г. Москва
Age: 30
Name: Дима
Scatterbrain wrote:
Тьху, начал читать ревьюшку и чуть не упал. Как-то странно кто-то пишет... :crazy:

:crazy:


Top
 Profile E-mail  
 
 
PostPosted: 06 Sep 2011 
Зарегился вот...
Joined: 15 Oct 2009
Posts: 3
Name: jekor
Please reupload this album. Thank you!!!


Top
 Profile E-mail  
 
 
PostPosted: 23 Sep 2011 
Работнечег
User avatar
Joined: 28 Aug 2007
Posts: 5939
Lоcаtion: г. Москва
Age: 30
Name: Дима
i'll reup tomorrow


Top
 Profile E-mail  
 
 
PostPosted: 23 Sep 2011 
Прокъмитолист
User avatar
Joined: 12 Aug 2007
Posts: 6590
Lоcаtion: Санктъ-Петербуркъ
Age: 51
Name: Олекъ
Димк, если внапряг, то я могу свой ммт-шный релиз залить ;)

_________________
прокъметол - это музыко, от которово есть прок (ы)


Top
 Profile  
 
 
PostPosted: 24 Sep 2011 
Работнечег
User avatar
Joined: 28 Aug 2007
Posts: 5939
Lоcаtion: г. Москва
Age: 30
Name: Дима
Новая ссылка в первом посте


Top
 Profile E-mail  
 
 
PostPosted: 24 Sep 2011 
Хиппей (support team)
User avatar
Joined: 30 Jul 2007
Posts: 114037
Lоcаtion: Киев (Kyiv, UA)
Age: 46
Name: Andrey
:thanx:
mirror: MultiUp l Narod

_________________


Top
 Profile E-mail  
 
Display posts from previous:  Sort by  
Post new topic Reply to topic  [ 14 posts ] 

All times are UTC + 3 hours


Who is online

Users browsing this forum: No registered users and 1 guest


You cannot post new topics in this forum
You cannot reply to topics in this forum
You cannot edit your posts in this forum
You cannot delete your posts in this forum
You cannot post attachments in this forum

Search for:
Яндекс.Метрика
Powered by phpBB © 2000, 2002, 2005, 2007 phpBB Group