\m/ 80's metal \m/

Информационно-аналитический форум "80 см пыли" (In Search We Trust) "У нас никто никуда не спешит"
Me For You - http://me-4u.com
It is currently 24 Aug 2019

All times are UTC + 3 hours

Spoiler
Chat - temporary registration for foreign users (please leave your application here)







Post new topic Reply to topic  [ 2 posts ] 
Author Message
 
PostPosted: 26 Nov 2009 
Old Time Rock`n`Roll
User avatar
Joined: 23 Jun 2008
Posts: 3467
Lоcаtion: г.Ульяновск
Age: 41
Name: Константин
D.A.D. – Riskin` It All (1991)

Image

Year: 1991
Style: Hard Rock, Hard`n`Heavy
Country: Denmark
Format: APE + log + cue + booklet & mp3-320
Size: 312Mb/112 Mb

Tracklist
01. Bad Craziness (3:16)
02. D-Law (3:48)
03. Day Of Wrong Moves (3:58)
04. Rock 'N' Rock Radar (2:36)
05. I Won't Cut My Hair (5:21)
06. Down That Dusty 3rd World Road (4:23)
07. Makin' Fun Of Money (4:08)
08. Grow Or Pay (4:59)
09. Smart Boy Can't Tell Ya' (3:15)
10. Riskin' It All (2:37)
11. Laugh 'n' A 1/2 (3:29)

TPT – 42:11

Line-Up:
Jacob A. Binzer Guitars, Backing Vocals
Jesper Binzer Vocals, Rhythm Guitar
Peter L. Jensen Drums
Stig Pedersen Bass, Backing Vocals

Album Credits:
Produced: Nikolaj Foss/D.A.D/Lars Overgaard
Engineered: Lars Overgaard
Mixed: Chris Lord-Alge
Mastered: Chris Lord-Alge/Steve Marcusson

Chart Position:
Sweden # 17
Norway # 14

Additional Players:
Rune Olsen Percussion

Spectres
Image

Cue
REM GENRE Rock
REM DATE 1991
REM DISCID 9609E20B
REM COMMENT "ExactAudioCopy v0.95b2"
PERFORMER "D-A-D"
TITLE "Riskin' It All"
FILE "CDImage.ape" WAVE
TRACK 01 AUDIO
TITLE "Bad Craziness"
PERFORMER "D-A-D"
INDEX 00 00:00:00
INDEX 01 00:00:32
TRACK 02 AUDIO
TITLE "D. Law"
PERFORMER "D-A-D"
INDEX 01 03:17:57
TRACK 03 AUDIO
TITLE "Day Of Wrong Moves"
PERFORMER "D-A-D"
INDEX 01 07:07:55
TRACK 04 AUDIO
TITLE "Rock 'n' Roll Radar"
PERFORMER "D-A-D"
INDEX 00 11:05:40
INDEX 01 11:05:62
TRACK 05 AUDIO
TITLE "I Won't Cut My Hair"
PERFORMER "D-A-D"
INDEX 01 13:43:45
TRACK 06 AUDIO
TITLE "Down That Dusty 3rd World Road"
PERFORMER "D-A-D"
INDEX 00 19:04:45
INDEX 01 19:07:52
TRACK 07 AUDIO
TITLE "Makin' Fun Of Money"
PERFORMER "D-A-D"
INDEX 00 23:32:42
INDEX 01 23:33:02
TRACK 08 AUDIO
TITLE "Grow Or Pay"
PERFORMER "D-A-D"
INDEX 00 27:40:67
INDEX 01 27:41:35
TRACK 09 AUDIO
TITLE "Smart Boy Can't Tell Ya'"
PERFORMER "D-A-D"
INDEX 01 32:43:12
TRACK 10 AUDIO
TITLE "Riskin' It All"
PERFORMER "D-A-D"
INDEX 00 35:59:52
INDEX 01 35:59:60
TRACK 11 AUDIO
TITLE "Laugh 'n' A Half"
PERFORMER "D-A-D"
INDEX 00 38:38:67
INDEX 01 38:38:70


Log
EAC extraction logfile from 14. July 2005, 23:13 for CD
D-A-D / Riskin' It All

Used drive : HL-DT-STDVDRAM GSA-4082B Adapter: 1 ID: 0
Read mode : Secure with NO C2, accurate stream, disable cache
Read offset correction : 667
Overread into Lead-In and Lead-Out : No

Used output format : C:\Documents and Settings\usuario1\Mis documentos\EACv.2\MAC.exe (Monkey's Audio Lossless Encoder)
High Lossless Compression

Other options :
Fill up missing offset samples with silence : Yes
Delete leading and trailing silent blocks : No
Native Win32 interface for Win NT & 2000


Range status and errors
Selected range
Filename C:\Documents and Settings\usuario1\Mis documentos\D.A.D. [1992] [CD] Riskinґit all [EAC - APE] by jjcale[VelvetUndergroundForum.com]\CDImage.wav

Peak level 100.0 %
Range quality 100.0 %
CRC 3AA0EEA3
Copy OK

No errors occured

End of status report

------------------------------------------------------------

EAC extraction logfile from 14. July 2005, 23:13 for CD
D-A-D / Riskin' It All

Used drive : HL-DT-STDVDRAM GSA-4082B Adapter: 1 ID: 0
Read mode : Secure with NO C2, accurate stream, disable cache
Read offset correction : 667
Overread into Lead-In and Lead-Out : No

Used output format : C:\Documents and Settings\usuario1\Mis documentos\EACv.2\MAC.exe (Monkey's Audio Lossless Encoder)
High Lossless Compression

Other options :
Fill up missing offset samples with silence : Yes
Delete leading and trailing silent blocks : No
Native Win32 interface for Win NT & 2000


Range status and errors
Selected range
Filename C:\Documents and Settings\usuario1\Mis documentos\D.A.D. [1992] [CD] Riskinґit all [EAC - APE] by jjcale[VelvetUndergroundForum.com]\CDImage.wav

Peak level 100.0 %
Range quality 100.0 %
CRC 3AA0EEA3
Copy OK

No errors occured

End of status report


APE
narod-APE

mp3-320
megaupload-320

Автор рипа – jjcale

Image


Top
 Profile  
 
 
PostPosted: 27 Nov 2009 
Хиппей (support team)
User avatar
Joined: 30 Jul 2007
Posts: 114092
Lоcаtion: Киев (Kyiv, UA)
Age: 46
Name: Andrey
Ой, обожаю этот альбом :true:

_________________


Top
 Profile E-mail  
 
Display posts from previous:  Sort by  
Post new topic Reply to topic  [ 2 posts ] 

All times are UTC + 3 hours


Who is online

Users browsing this forum: No registered users and 1 guest


You cannot post new topics in this forum
You cannot reply to topics in this forum
You cannot edit your posts in this forum
You cannot delete your posts in this forum
You cannot post attachments in this forum

Search for:
Яндекс.Метрика
Powered by phpBB © 2000, 2002, 2005, 2007 phpBB Group