\m/ 80's metal \m/

Информационно-аналитический форум "80 см пыли" (In Search We Trust) "У нас никто никуда не спешит"
Me For You - http://me-4u.com
It is currently 25 May 2019

All times are UTC + 3 hours

Spoiler
Chat - temporary registration for foreign users (please leave your application here)







Post new topic Reply to topic  [ 8 posts ] 
Author Message
 
PostPosted: 07 Nov 2009 
Хиппей (support team)
User avatar
Joined: 30 Jul 2007
Posts: 112790
Lоcаtion: Киев (Kyiv, UA)
Age: 45
Name: Andrey
The Don Harrison Band - 1976 - The Don Harrison Band (reissued 2006) [flac]

Attachment:
front.jpg
front.jpg [ 149.58 KiB | Viewed 162 times ]


Genre: Southern Rock
Location: USA
Format: flac+cue+log+covers
Size: 217 Mb


Line-up:
Don Harrison - Vocals, Rhythm guitar, Keyboards
Doug Clifford - Drums, Percussion, Harmony Vocals
Stu Cook - Bass, Piano, Harmony Vocals
Russell DaShiell - Lead and Rhythm guitarы, Piano, Harmony Vocals

    1. Sixteen Tons - 03:01
    2. Who I Really Am - 03:07
    3. Rock 'N' Roll Records - 02:47
    4. Fame and Fortune - 03:58
    5. Sometimes Loving You - 05:51
    6. Romance - 03:08
    7. Sweatwater William - 02:37
    8. Barroom Dancing Girl - 03:59
    9. A Bit Of Love - 02:57
    10. Living Another Day - 04:29

    TPT: 35:54

Mega l Narod

Начался альбом бодренько. А затем... я уснул.
Не моя музыка :pardon:


Источник рипа :thanx:

log
Exact Audio Copy V0.99 prebeta 4 from 23. January 2008

Отчёт EAC об извлечении, выполненном 12. октября 2008, 18:37

Don Harrison Band / The Don Harrison Band

Дисковод: PIONEER DVD-RW DVR-109 Adapter: 0 ID: 0

Режим чтения : Достоверность
Использование точного потока : Да
Отключение кэша аудио : Да
Использование указателей C2 : Нет

Коррекция смещения при чтении : 48
Способность читать области Lead-in и Lead-out : Нет
Заполнение пропущенных сэмплов тишиной : Да
Удаление блоков с тишиной в начале и конце : Нет
При вычислениях CRC использовались нулевые сэмплы : Нет
Интерфейс : Встроенный Win32-интерфейс для Win NT/2000
Обработка зазоров : Не обнаружено, добавлено к предыдущему треку

Выходной формат : Пользовательский кодировщик
Выбранный битрейт : 768 kBit/s
Качество : Высокий
Добавление ID3-тэга : Нет
Утилита сжатия : C:\Program Files\Exact Audio Copy\FLAC\FLAC.EXE
Дополнительные параметры : -6 -V -T "ARTIST=%a" -T "TITLE=%t" -T "ALBUM=%g" -T "DATE=%y" -T "TRACKNUMBER=%n" -T "GENRE=%m" -T "COMMENT=%e" %s -o %d


TOC извлечённого CD

Трек | Старт | Длительность | Начальный сектор | Конечный сектор
---------------------------------------------------------------------
1 | 0:00.00 | 2:59.02 | 0 | 13426
2 | 2:59.02 | 3:05.50 | 13427 | 27351
3 | 6:04.52 | 2:45.14 | 27352 | 39740
4 | 8:49.66 | 3:56.30 | 39741 | 57470
5 | 12:46.21 | 5:49.47 | 57471 | 83692
6 | 18:35.68 | 3:06.36 | 83693 | 97678
7 | 21:42.29 | 2:35.42 | 97679 | 109345
8 | 24:17.71 | 3:57.15 | 109346 | 127135
9 | 28:15.11 | 2:55.43 | 127136 | 140303
10 | 31:10.54 | 4:29.14 | 140304 | 160492


Трек 1

Имя файла C:\Music\Don Harrison Band - The Don Harrison Band (1976)\1. Sixteen Tons.wav

Пиковый уровень 100.0 %
Качество трека 100.0 %
CRC копии E8B1BBAF
Трек не обнаружен в базе AccurateRip
Копирование... OK

Трек 2

Имя файла C:\Music\Don Harrison Band - The Don Harrison Band (1976)\2. Who I Really Am.wav

Пиковый уровень 98.4 %
Качество трека 100.0 %
CRC копии B4AC0E06
Трек не обнаружен в базе AccurateRip
Копирование... OK

Трек 3

Имя файла C:\Music\Don Harrison Band - The Don Harrison Band (1976)\3. Rock 'N' Roll Records.wav

Пиковый уровень 98.6 %
Качество трека 100.0 %
CRC копии 3136953C
Трек не обнаружен в базе AccurateRip
Копирование... OK

Трек 4

Имя файла C:\Music\Don Harrison Band - The Don Harrison Band (1976)\4. Fame And Fortune.wav

Пиковый уровень 100.0 %
Качество трека 100.0 %
CRC копии CCFCEDCF
Трек не обнаружен в базе AccurateRip
Копирование... OK

Трек 5

Имя файла C:\Music\Don Harrison Band - The Don Harrison Band (1976)\5. Sometimes Loving You.wav

Пиковый уровень 96.2 %
Качество трека 99.9 %
CRC копии 6EFE3573
Трек не обнаружен в базе AccurateRip
Копирование... OK

Трек 6

Имя файла C:\Music\Don Harrison Band - The Don Harrison Band (1976)\6. Romance.wav

Пиковый уровень 83.3 %
Качество трека 100.0 %
CRC копии 2206A895
Трек не обнаружен в базе AccurateRip
Копирование... OK

Трек 7

Имя файла C:\Music\Don Harrison Band - The Don Harrison Band (1976)\7. Sweatwater William.wav

Пиковый уровень 94.6 %
Качество трека 100.0 %
CRC копии 3DFEC425
Трек не обнаружен в базе AccurateRip
Копирование... OK

Трек 8

Имя файла C:\Music\Don Harrison Band - The Don Harrison Band (1976)\8. Barroom Dancing Girl.wav

Пиковый уровень 96.8 %
Качество трека 100.0 %
CRC копии C378F3EE
Трек не обнаружен в базе AccurateRip
Копирование... OK

Трек 9

Имя файла C:\Music\Don Harrison Band - The Don Harrison Band (1976)\9. A Bit Of Love.wav

Пиковый уровень 86.5 %
Качество трека 100.0 %
CRC копии 095473DC
Трек не обнаружен в базе AccurateRip
Копирование... OK

Трек 10

Имя файла C:\Music\Don Harrison Band - The Don Harrison Band (1976)\10. Living Another Day.wav

Пиковый уровень 93.9 %
Качество трека 100.0 %
CRC копии 939C85E7
Трек не обнаружен в базе AccurateRip
Копирование... OK


Ни одного трека нет в базе AccurateRip

Ошибок не произошло

Конец отчёта


cue
REM GENRE Southern Rock
REM DATE 1976
REM DISCID 87085B0A
REM COMMENT "2006, AUS, 2000 Fruitgum, CD, 9396318105029"
PERFORMER "Don Harrison Band"
TITLE "The Don Harrison Band"
FILE "Don Harrison Band - The Don Harrison Band.flac" WAVE
TRACK 01 AUDIO
TITLE "Sixteen Tons"
PERFORMER "Don Harrison Band"
INDEX 01 00:00:00
TRACK 02 AUDIO
TITLE "Who I Really Am"
PERFORMER "Don Harrison Band"
INDEX 01 02:59:02
TRACK 03 AUDIO
TITLE "Rock 'N' Roll Records"
PERFORMER "Don Harrison Band"
INDEX 01 06:04:52
TRACK 04 AUDIO
TITLE "Fame And Fortune"
PERFORMER "Don Harrison Band"
INDEX 01 08:49:66
TRACK 05 AUDIO
TITLE "Sometimes Loving You"
PERFORMER "Don Harrison Band"
INDEX 01 12:46:21
TRACK 06 AUDIO
TITLE "Romance"
PERFORMER "Don Harrison Band"
INDEX 01 18:35:68
TRACK 07 AUDIO
TITLE "Sweatwater William"
PERFORMER "Don Harrison Band"
INDEX 01 21:42:29
TRACK 08 AUDIO
TITLE "Barroom Dancing Girl"
PERFORMER "Don Harrison Band"
INDEX 01 24:17:71
TRACK 09 AUDIO
TITLE "A Bit Of Love"
PERFORMER "Don Harrison Band"
INDEX 01 28:15:11
TRACK 10 AUDIO
TITLE "Living Another Day"
PERFORMER "Don Harrison Band"
INDEX 01 31:10:54


spectrum
Image

_________________


Top
 Profile E-mail  
 
 
PostPosted: 08 Nov 2009 
Персональный статус
User avatar
Joined: 30 May 2009
Posts: 453
Age: 66
Name: mihail
Саныч,ты наверное перед прослушиванием феназипамчику принял.


Top
 Profile E-mail  
 
 
PostPosted: 08 Nov 2009 
Хиппей (support team)
User avatar
Joined: 30 Jul 2007
Posts: 112790
Lоcаtion: Киев (Kyiv, UA)
Age: 45
Name: Andrey
Он феника я бы расписал здесь ревьюшку на 5 страниц, а так тоска тоской :fingal: :crazy:

_________________


Top
 Profile E-mail  
 
 
PostPosted: 09 Nov 2009 
Почётный металлург
User avatar
Joined: 15 Sep 2007
Posts: 4358
Lоcаtion: Хабаровск
Age: 59
Name: чуть выше
Scatterbrain wrote:
а так тоска тоской

Я и думал, что это не твоё. Но за пост большое спасибо. Когда-то был у меня на виниле с дубовым, обклеенным скотчем и ломанными углами конвертом...

_________________
Коль будешь людей ты ослами честить,
тебе человеком меж них не прослыть!
(Саади, персидский поэт, 13в.)


Top
 Profile  
 
 
PostPosted: 09 Nov 2009 
Хиппей (support team)
User avatar
Joined: 30 Jul 2007
Posts: 112790
Lоcаtion: Киев (Kyiv, UA)
Age: 45
Name: Andrey
Sergey wrote:
Я и думал, что это не твоё

Ну вокал то очень хороший, а вот споровождение слишком уж хлипкое. Да и разнообразия и немного жесткости мне здесь не хватает :vic:

_________________


Top
 Profile E-mail  
 
 
PostPosted: 09 Nov 2009 
Почётный металлург
User avatar
Joined: 15 Sep 2007
Posts: 4358
Lоcаtion: Хабаровск
Age: 59
Name: чуть выше
Понимаю, Андрей.

_________________
Коль будешь людей ты ослами честить,
тебе человеком меж них не прослыть!
(Саади, персидский поэт, 13в.)


Top
 Profile  
 
 
PostPosted: 05 Oct 2011 
хард н хэвщик (support team)
User avatar
Joined: 02 Jun 2008
Posts: 16881
Lоcаtion: Н.Новгород
Age: 32
Name: Артем
офигеть, какая классная ревьюшка :true:


Top
 Profile  
 
 
PostPosted: 05 Oct 2011 
Хиппей (support team)
User avatar
Joined: 30 Jul 2007
Posts: 112790
Lоcаtion: Киев (Kyiv, UA)
Age: 45
Name: Andrey
Старался :thanx:

_________________


Top
 Profile E-mail  
 
Display posts from previous:  Sort by  
Post new topic Reply to topic  [ 8 posts ] 

All times are UTC + 3 hours


Who is online

Users browsing this forum: No registered users and 1 guest


You cannot post new topics in this forum
You cannot reply to topics in this forum
You cannot edit your posts in this forum
You cannot delete your posts in this forum
You cannot post attachments in this forum

Search for:
Яндекс.Метрика
Powered by phpBB © 2000, 2002, 2005, 2007 phpBB Group