\m/ 80's metal \m/

Информационно-аналитический форум "80 см пыли" (In Search We Trust) "У нас никто никуда не спешит"
Me For You - http://me-4u.com
It is currently 25 Aug 2019

All times are UTC + 3 hours

Spoiler
Chat - temporary registration for foreign users (please leave your application here)







Post new topic Reply to topic  [ 2 posts ] 
Author Message
 
PostPosted: 25 Oct 2009 
5-speed satisfactor
User avatar
Joined: 16 Feb 2009
Posts: 3755
Lоcаtion: New York, USA
Age: 41
Name: Leonid
Doom - 1989 - Incompetent... [flac]

    Image

Genre: Progressive Thrash Metal, Avant-garde
Location: Japan
Format: flac+cue+log
Size: 295 Mb


Line-up:
Takashi Fujita - vocals & guitar
Kou Morota - bass
Jouichi Hirokawa - drums

    1. I Can't Go Back to Myself - 07:50
    2. Eating it Raw - 04:11
    3. 20th Century a Proud Man - 05:58
    4. Killing TIme - 04:39
    5. A Sandglass of the Jungle - 04:48
    6. Death of False Rock! - 04:43
    7. I Will Be With You... - 02:38
    8. Lost! In My Head - 04:06
    9. Sympathy for the Devil - 04:15
    10. Desert Flower - 04:19
    11. Incompetent... The War Pig - 07:24

    TPT: 54:51

http://www.megaupload.com/?d=V7Y2K52K

cue
REM GENRE "Avant-Garde Metal"
REM DATE 1989
REM DISCID 950CDB0B
REM COMMENT "ExactAudioCopy v0.99pb5"
PERFORMER "Doom"
TITLE "Incompetent..."
FILE "Doom - Incompetent....flac" WAVE
TRACK 01 AUDIO
TITLE "I can't go back to myself"
PERFORMER "Doom"
INDEX 00 00:00:00
INDEX 01 00:00:37
TRACK 02 AUDIO
TITLE "Eating it raw"
PERFORMER "Doom"
INDEX 00 07:49:12
INDEX 01 07:50:47
TRACK 03 AUDIO
TITLE "20th century a proud man"
PERFORMER "Doom"
INDEX 00 11:59:62
INDEX 01 12:01:22
TRACK 04 AUDIO
TITLE "Killing time"
PERFORMER "Doom"
INDEX 01 17:59:22
TRACK 05 AUDIO
TITLE "A sandglass of the jungle"
PERFORMER "Doom"
INDEX 00 22:37:02
INDEX 01 22:38:05
TRACK 06 AUDIO
TITLE "Death of false ROCK!!"
PERFORMER "Doom"
INDEX 01 27:26:17
TRACK 07 AUDIO
TITLE "I will be with you..."
PERFORMER "Doom"
INDEX 01 32:08:70
TRACK 08 AUDIO
TITLE "Lost! in my head"
PERFORMER "Doom"
INDEX 01 34:47:22
TRACK 09 AUDIO
TITLE "Sympathy for the devil"
PERFORMER "Doom"
INDEX 01 38:53:10
TRACK 10 AUDIO
TITLE "Desert flower"
PERFORMER "Doom"
INDEX 00 43:06:37
INDEX 01 43:08:07
TRACK 11 AUDIO
TITLE "Incompetent... The war pig"
PERFORMER "Doom"
INDEX 01 47:26:65


log
Exact Audio Copy V0.99 prebeta 5 from 4. May 2009

EAC extraction logfile from 24. October 2009, 12:30

Doom / Incompetent...

Used drive : MATSHITADVD-R UJ-867 Adapter: 0 ID: 0

Read mode : Secure
Utilize accurate stream : Yes
Defeat audio cache : No
Make use of C2 pointers : Yes

Read offset correction : 102
Overread into Lead-In and Lead-Out : No
Fill up missing offset samples with silence : Yes
Delete leading and trailing silent blocks : No
Null samples used in CRC calculations : No
Used interface : Native Win32 interface for Win NT & 2000

Used output format : User Defined Encoder
Selected bitrate : 768 kBit/s
Quality : High
Add ID3 tag : No
Command line compressor : C:\Program Files\Exact Audio Copy\FLAC\FLAC.EXE
Additional command line options : -8 -V -T "ARTIST=%a" -T "TITLE=%t" -T "ALBUM=%g" -T "DATE=%y" -T "TRACKNUMBER=%n" -T "GENRE=%m" -T "COMMENT=%e" %s -o %d


TOC of the extracted CD

Track | Start | Length | Start sector | End sector
---------------------------------------------------------
1 | 0:00.37 | 7:50.10 | 37 | 35296
2 | 7:50.47 | 4:10.50 | 35297 | 54096
3 | 12:01.22 | 5:58.00 | 54097 | 80946
4 | 17:59.22 | 4:38.58 | 80947 | 101854
5 | 22:38.05 | 4:48.12 | 101855 | 123466
6 | 27:26.17 | 4:42.53 | 123467 | 144669
7 | 32:08.70 | 2:38.27 | 144670 | 156546
8 | 34:47.22 | 4:05.63 | 156547 | 174984
9 | 38:53.10 | 4:14.72 | 174985 | 194106
10 | 43:08.07 | 4:18.58 | 194107 | 213514
11 | 47:26.65 | 7:24.55 | 213515 | 246869


Range status and errors

Selected range

Filename C:\Documents and Settings\leonid\My Documents\My Music\ToCD\Doom - Incompetent....wav

Peak level 100.0 %
Range quality 100.0 %
Copy CRC 124D0381
Copy OK

No errors occurred

End of status report

_________________
Death rules! Metal to all who oppose!


Top
 Profile  
 
 
PostPosted: 19 Mar 2010 
Thrasher
User avatar
Joined: 07 Oct 2007
Posts: 2782
Lоcаtion: Russia, Moscow
Age: 35
Name: Drunk & Evil
Заберу, спасибо Леонид! :thanx:

сдохла сцылка(((

_________________
ВОДКА, БАБЫ И БЛЮЗ / 40° till death... :bodun:
One time we saw some hookers, but when we got closer, we realised it was Mötley Crüe. ©


Top
 Profile  
 
Display posts from previous:  Sort by  
Post new topic Reply to topic  [ 2 posts ] 

All times are UTC + 3 hours


Who is online

Users browsing this forum: No registered users and 2 guests


You cannot post new topics in this forum
You cannot reply to topics in this forum
You cannot edit your posts in this forum
You cannot delete your posts in this forum
You cannot post attachments in this forum

Search for:
Яндекс.Метрика
Powered by phpBB © 2000, 2002, 2005, 2007 phpBB Group