\m/ 80's metal \m/

Информационно-аналитический форум "80 см пыли" (In Search We Trust) "У нас никто никуда не спешит"
Me For You - http://me-4u.com
It is currently 23 Aug 2019

All times are UTC + 3 hours

Spoiler
Chat - temporary registration for foreign users (please leave your application here)







Post new topic Reply to topic  [ 26 posts ]  Go to page Previous  1, 2
Author Message
 
PostPosted: 26 Feb 2012 
Генеральный thrasher
User avatar
Joined: 03 Oct 2008
Posts: 3717
Lоcаtion: Ханты-Мансийский АО
Age: 44
Name: Сергей
Заливай!


Top
 Profile  
 
 
PostPosted: 26 Feb 2012 
Персональный статус
User avatar
Joined: 22 Oct 2011
Posts: 352
Lоcаtion: Moscow
Age: 60
Name: Серёжа
http://narod.ru/disk/41987141001.ed39291952a5d2de06b6260d0aa27a11/DSB03.rar.html

log
Exact Audio Copy V1.0 beta 3 from 29. August 2011

EAC extraction logfile from 26. February 2012, 20:05

Destructor / Sonic Bullet

Used drive : SATA PLEXTOR DVDR P Adapter: 4 ID: 0

Read mode : Secure
Utilize accurate stream : Yes
Defeat audio cache : Yes
Make use of C2 pointers : No

Read offset correction : 48
Overread into Lead-In and Lead-Out : No
Fill up missing offset samples with silence : Yes
Delete leading and trailing silent blocks : No
Null samples used in CRC calculations : Yes
Used interface : Native Win32 interface for Win NT & 2000

Used output format : User Defined Encoder
Selected bitrate : 768 kBit/s
Quality : High
Add ID3 tag : No
Command line compressor : C:\Program Files\Exact Audio Copy\FLAC\FLAC.EXE
Additional command line options : -6 -V -T "ARTIST=%artist%" -T "TITLE=%title%" -T "ALBUM=%albumtitle%" -T "DATE=%year%" -T "TRACKNUMBER=%tracknr%" -T "GENRE=%genre%" -T "COMMENT=%comment%" -T "BAND=%albuminterpret%" -T "ALBUMARTIST=%albuminterpret%" -T "COMPOSER=%composer%" %haslyrics%--tag-from-file=LYRICS="%lyricsfile%"%haslyrics% -T "DISCNUMBER=%cdnumber%" -T "TOTALDISCS=%totalcds%" -T "TOTALTRACKS=%numtracks%" %hascover%--picture="%coverfile%"%hascover% %source% -o %dest%


TOC of the extracted CD

Track | Start | Length | Start sector | End sector
---------------------------------------------------------
1 | 0:00.00 | 3:24.23 | 0 | 15322
2 | 3:24.23 | 4:10.57 | 15323 | 34129
3 | 7:35.05 | 6:40.21 | 34130 | 64150
4 | 14:15.26 | 3:33.27 | 64151 | 80152
5 | 17:48.53 | 4:47.31 | 80153 | 101708
6 | 22:36.09 | 6:55.72 | 101709 | 132905
7 | 29:32.06 | 5:33.57 | 132906 | 157937
8 | 35:05.63 | 4:34.66 | 157938 | 178553
9 | 39:40.54 | 6:20.01 | 178554 | 207054


Range status and errors

Selected range

Filename C:\Documents and Settings\Sergey\Мои документы\Destructor - Sonic Bullet.wav

Peak level 100.0 %
Extraction speed 7.1 X
Range quality 100.0 %
Copy CRC 66D272D9
Copy OK

No errors occurred

End of status report

==== Log checksum 9337152798A406EE8C7D7297FFB2D366CB611C14514F078D1371E87536046C27 ====


cue
REM GENRE "Heavy Metal"
REM DATE 2003
REM DISCID 730AC809
REM COMMENT "ExactAudioCopy v1.0b3"
PERFORMER "Destructor"
TITLE "Sonic Bullet"
FILE "Destructor - Sonic Bullet.flac" WAVE
TRACK 01 AUDIO
TITLE "Sonic Bullet"
PERFORMER "Destructor"
INDEX 01 00:00:00
TRACK 02 AUDIO
TITLE "Heavy Artillery"
PERFORMER "Destructor"
INDEX 01 03:24:23
TRACK 03 AUDIO
TITLE "Silent Enemy"
PERFORMER "Destructor"
INDEX 01 07:35:05
TRACK 04 AUDIO
TITLE "Blackest Night"
PERFORMER "Destructor"
INDEX 01 14:15:26
TRACK 05 AUDIO
TITLE "Master Of The Universe"
PERFORMER "Destructor"
INDEX 01 17:48:53
TRACK 06 AUDIO
TITLE "G-Force"
PERFORMER "Destructor"
INDEX 01 22:36:09
TRACK 07 AUDIO
TITLE "The Triangle"
PERFORMER "Destructor"
INDEX 01 29:32:06
TRACK 08 AUDIO
TITLE "Pounding Evil (Live)"
PERFORMER "Destructor"
INDEX 01 35:05:63
TRACK 09 AUDIO
TITLE "Iron Curtain (Live)"
PERFORMER "Destructor"
INDEX 01 39:40:54


spectrum
Image


Top
 Profile E-mail  
 
 
PostPosted: 28 Feb 2012 
Генеральный thrasher
User avatar
Joined: 03 Oct 2008
Posts: 3717
Lоcаtion: Ханты-Мансийский АО
Age: 44
Name: Сергей
Спасибо!


Top
 Profile  
 
 
PostPosted: 28 Feb 2012 
Я набрал 1000 сообщений!
Joined: 24 Oct 2009
Posts: 2243
Lоcаtion: Оренбург
Age: 55
Name: Юра
:thanx: Спасибо!

_________________
:dash: I am happy!


Top
 Profile E-mail  
 
 
PostPosted: 28 Feb 2012 
ТрэшЭрос
User avatar
Joined: 18 Jul 2011
Posts: 2304
Lоcаtion: Гулькевичи
Age: 44
Name: Александр
and я туда же! :thanx:

_________________
Thrash no trash!!!


Top
 Profile E-mail  
 
 
PostPosted: 28 Feb 2012 
Хиппей (support team)
User avatar
Joined: 30 Jul 2007
Posts: 114071
Lоcаtion: Киев (Kyiv, UA)
Age: 46
Name: Andrey
:thanx:

mirror: Speedy l Narod

_________________


Top
 Profile E-mail  
 
Display posts from previous:  Sort by  
Post new topic Reply to topic  [ 26 posts ]  Go to page Previous  1, 2

All times are UTC + 3 hours


Who is online

Users browsing this forum: No registered users and 2 guests


You cannot post new topics in this forum
You cannot reply to topics in this forum
You cannot edit your posts in this forum
You cannot delete your posts in this forum
You cannot post attachments in this forum

Search for:
Яндекс.Метрика
Powered by phpBB © 2000, 2002, 2005, 2007 phpBB Group