\m/ 80's metal \m/

Информационно-аналитический форум "80 см пыли" (In Search We Trust) "У нас никто никуда не спешит"
Me For You - http://me-4u.com
It is currently 22 Aug 2019

All times are UTC + 3 hours

Spoiler
Chat - temporary registration for foreign users (please leave your application here)







Post new topic Reply to topic  [ 10 posts ] 
Author Message
 
PostPosted: 28 Sep 2009 
Генеральный thrasher
User avatar
Joined: 03 Oct 2008
Posts: 3717
Lоcаtion: Ханты-Мансийский АО
Age: 44
Name: Сергей
Image

Year: 1995
Style: Thrash/Crossover
Country: U.S.A.
Label: Rotten Records
Format: Flac+Cue+Log
Size: 382Mb

Tracklist:
1. Problem Addict 01:39
2. I'm The Liar 04:13
3. Under The Overpass 03:24
4. They Don't Care 04:53
5. Drawn And Quartered 02:30
6. No End 03:33
7. Wages Of Sin 02:15
8. Syringes In The Sandbox 03:40
9. Who Am I? 00:47
10. Girl With A Gun 04:29
11. Dead Meat 04:03
12. Down To The Wire 03:14
13. Level 7 03:29
14. Broke 00:45
15. Sucker 03:31
16. Underneath The Surface 26:19

Line-Up:
Kurt Brecht - vocals
Spike Cassidy - guitar
Chumly Porter - bass
Ron Rampy - drums

Cue
REM GENRE Crossover
REM DATE 1995
REM DISCID CA111410
REM COMMENT "ExactAudioCopy v0.99pb4"
PERFORMER "D.R.I."
TITLE "Full Speed Ahead"
FILE "D.R.I. - Full Speed Ahead.flac" WAVE
TRACK 01 AUDIO
TITLE "Problem Addict"
PERFORMER "D.R.I."
INDEX 01 00:00:00
TRACK 02 AUDIO
TITLE "I'm The Liar"
PERFORMER "D.R.I."
INDEX 01 01:39:65
TRACK 03 AUDIO
TITLE "Under The Overpass"
PERFORMER "D.R.I."
INDEX 01 05:53:20
TRACK 04 AUDIO
TITLE "They Don't Care"
PERFORMER "D.R.I."
INDEX 01 09:17:70
TRACK 05 AUDIO
TITLE "Drawn And Quartered"
PERFORMER "D.R.I."
INDEX 01 14:11:25
TRACK 06 AUDIO
TITLE "No End"
PERFORMER "D.R.I."
INDEX 01 16:42:20
TRACK 07 AUDIO
TITLE "Wages Of Sin"
PERFORMER "D.R.I."
INDEX 01 20:15:45
TRACK 08 AUDIO
TITLE "Syringes In The Sandbox"
PERFORMER "D.R.I."
INDEX 01 22:30:60
TRACK 09 AUDIO
TITLE "Who Am I?"
PERFORMER "D.R.I."
INDEX 01 26:11:42
TRACK 10 AUDIO
TITLE "Girl With A Gun"
PERFORMER "D.R.I."
INDEX 01 26:59:12
TRACK 11 AUDIO
TITLE "Dead Meat"
PERFORMER "D.R.I."
INDEX 01 31:28:25
TRACK 12 AUDIO
TITLE "Down To The Wire"
PERFORMER "D.R.I."
INDEX 01 35:31:30
TRACK 13 AUDIO
TITLE "Level 7"
PERFORMER "D.R.I."
INDEX 01 38:45:62
TRACK 14 AUDIO
TITLE "Broke"
PERFORMER "D.R.I."
INDEX 01 42:15:07
TRACK 15 AUDIO
TITLE "Sucker"
PERFORMER "D.R.I."
INDEX 01 43:00:60
TRACK 16 AUDIO
TITLE "Underneath The Surface"
PERFORMER "D.R.I."
INDEX 01 46:32:55


Log
Exact Audio Copy V0.99 prebeta 4 from 23. January 2008

Отчёт EAC об извлечении, выполненном 28. сентября 2009, 15:39

D.R.I. / Full Speed Ahead

Дисковод: ATAPI DVD A DH20A4P Adapter: 0 ID: 1

Режим чтения : Достоверность
Использование точного потока : Да
Отключение кэша аудио : Да
Использование указателей C2 : Нет

Коррекция смещения при чтении : 6
Способность читать области Lead-in и Lead-out : Нет
Заполнение пропущенных сэмплов тишиной : Да
Удаление блоков с тишиной в начале и конце : Нет
При вычислениях CRC использовались нулевые сэмплы : Нет
Интерфейс : Встроенный Win32-интерфейс для Win NT/2000

Выходной формат : Пользовательский кодировщик
Выбранный битрейт : 768 kBit/s
Качество : Высокий
Добавление ID3-тэга : Нет
Утилита сжатия : C:\Program Files\Exact Audio Copy\FLAC\FLAC.EXE
Дополнительные параметры : -6 -V -T "ARTIST=%a" -T "TITLE=%t" -T "ALBUM=%g" -T "DATE=%y" -T "TRACKNUMBER=%n" -T "GENRE=%m" -T "COMMENT=%e" %s -o %d


TOC извлечённого CD

Трек | Старт | Длительность | Начальный сектор | Конечный сектор
---------------------------------------------------------------------
1 | 0:00.00 | 1:39.65 | 0 | 7489
2 | 1:39.65 | 4:13.30 | 7490 | 26494
3 | 5:53.20 | 3:24.50 | 26495 | 41844
4 | 9:17.70 | 4:53.30 | 41845 | 63849
5 | 14:11.25 | 2:30.70 | 63850 | 75169
6 | 16:42.20 | 3:33.25 | 75170 | 91169
7 | 20:15.45 | 2:15.15 | 91170 | 101309
8 | 22:30.60 | 3:40.57 | 101310 | 117866
9 | 26:11.42 | 0:47.45 | 117867 | 121436
10 | 26:59.12 | 4:29.13 | 121437 | 141624
11 | 31:28.25 | 4:03.05 | 141625 | 159854
12 | 35:31.30 | 3:14.32 | 159855 | 174436
13 | 38:45.62 | 3:29.20 | 174437 | 190131
14 | 42:15.07 | 0:45.53 | 190132 | 193559
15 | 43:00.60 | 3:31.70 | 193560 | 209454
16 | 46:32.55 | 26:19.37 | 209455 | 327916


Характеристики диапазона извлечения и сообщения об ошибках

Выбранный диапазон

Имя файла F:\Лоси\D.R.I. - Full Speed Ahead.wav

Пиковый уровень 100.0 %
Качество диапазона 100.0 %
CRC копии 3B24A122
Копирование... OK

Ошибок не произошло



Конец отчёта


Megaupload


Top
 Profile  
 
 
PostPosted: 28 Sep 2009 
Генеральный thrasher
User avatar
Joined: 03 Oct 2008
Posts: 3717
Lоcаtion: Ханты-Мансийский АО
Age: 44
Name: Сергей
В последнее время мои лосики что-то невостребованы...Но может кому-то пригодится.


Top
 Profile  
 
 
PostPosted: 28 Sep 2009 
Работнечег
User avatar
Joined: 28 Aug 2007
Posts: 5939
Lоcаtion: г. Москва
Age: 30
Name: Дима
thorbeorn wrote:
В последнее время мои лосики что-то невостребованы...Но может кому-то пригодится.

Места мало :oops:
За альбом спасибо, скачаю правда явно не сейчас.


Top
 Profile E-mail  
 
 
PostPosted: 28 Sep 2009 
Хиппей (support team)
User avatar
Joined: 30 Jul 2007
Posts: 114037
Lоcаtion: Киев (Kyiv, UA)
Age: 46
Name: Andrey
:true:

_________________


Top
 Profile E-mail  
 
 
PostPosted: 28 Sep 2009 
Хиппей (support team)
User avatar
Joined: 30 Jul 2007
Posts: 114037
Lоcаtion: Киев (Kyiv, UA)
Age: 46
Name: Andrey
thorbeorn wrote:
В последнее время мои лосики что-то невостребованы...

Как метко заметил Димка - качать уже некуды давно :fingal:

_________________


Top
 Profile E-mail  
 
 
PostPosted: 28 Sep 2009 
Генеральный thrasher
User avatar
Joined: 03 Oct 2008
Posts: 3717
Lоcаtion: Ханты-Мансийский АО
Age: 44
Name: Сергей
А я купил выносной на 400Gb,чтоб качать то,что выкладывается на форуме...


Top
 Profile  
 
 
PostPosted: 28 Sep 2009 
Работнечег
User avatar
Joined: 28 Aug 2007
Posts: 5939
Lоcаtion: г. Москва
Age: 30
Name: Дима
thorbeorn wrote:
А я купил выносной на 400Gb,чтоб качать то,что выкладывается на форуме...

Да у меня тоже стоит на 500 внешний + 250 которые на компе.Но всё равно если задаться целью всё качать, то место быстро закончиться.Поэтому я как правило по старинке мп3 320 забираю, лосей редко.


Top
 Profile E-mail  
 
 
PostPosted: 28 Sep 2009 
Прокъмитолист
User avatar
Joined: 12 Aug 2007
Posts: 6590
Lоcаtion: Санктъ-Петербуркъ
Age: 51
Name: Олекъ
thorbeorn wrote:
В последнее время мои лосики что-то невостребованы...

Сереж, лосики классные, слов нет. просто в основном это все уже есть на других ресурсах, и все уже наелись. Meliah Rage, например, я сам лично релизил.

_________________
прокъметол - это музыко, от которово есть прок (ы)


Top
 Profile  
 
 
PostPosted: 28 Sep 2009 
Хиппей (support team)
User avatar
Joined: 30 Jul 2007
Posts: 114037
Lоcаtion: Киев (Kyiv, UA)
Age: 46
Name: Andrey
thorbeorn wrote:
А я купил выносной на 400Gb,чтоб качать то,что выкладывается на форуме...

Я тож так год назад думал, но когда перевалило на форуме файлов за 2 терра, дико обломисло :fingal: И уже с ноября месяца собираю ссылки только в блокнотик (где они постепенно и дохнут, так как мало кто озабочен продлением своих же ссылок).
Иногда качаю, когда 4-5 гигов почищу... Но это на сутки-двое :crazy:

_________________


Top
 Profile E-mail  
 
 
PostPosted: 28 Sep 2009 
Thrasher
User avatar
Joined: 07 Oct 2007
Posts: 2782
Lоcаtion: Russia, Moscow
Age: 35
Name: Drunk & Evil
Scatterbrain wrote:
Иногда качаю, когда 4-5 гигов почищу... Но это на сутки-двое :crazy: [/i]


я-я...даст ист гут, я тож качать, но моя цель проста, захламить всю комнату дешевыми двд :true:

_________________
ВОДКА, БАБЫ И БЛЮЗ / 40° till death... :bodun:
One time we saw some hookers, but when we got closer, we realised it was Mötley Crüe. ©


Top
 Profile  
 
Display posts from previous:  Sort by  
Post new topic Reply to topic  [ 10 posts ] 

All times are UTC + 3 hours


Who is online

Users browsing this forum: No registered users and 3 guests


You cannot post new topics in this forum
You cannot reply to topics in this forum
You cannot edit your posts in this forum
You cannot delete your posts in this forum
You cannot post attachments in this forum

Search for:
Яндекс.Метрика
Powered by phpBB © 2000, 2002, 2005, 2007 phpBB Group