\m/ 80's metal \m/

Информационно-аналитический форум "80 см пыли" (In Search We Trust) "У нас никто никуда не спешит"
Me For You - http://me-4u.com
It is currently 23 May 2019

All times are UTC + 3 hours

Spoiler
Chat - temporary registration for foreign users (please leave your application here)







Post new topic Reply to topic  [ 26 posts ]  Go to page Previous  1, 2
Author Message
 
PostPosted: 15 Sep 2009 
А может смените мне статус?..
Joined: 03 Jul 2009
Posts: 868
Lоcаtion: Serbia
Name: Laki
Image


1. Wanna Get Close
2. Don't Leave Me Lonely
3. Stronger Than Ever
4. Moonriders
5. Lay It On
6. I Don't Need Your Love
7. Listen to the Music
8. Stay Till the Morning
9. Stand Up And Rock
10. Shadows of the Past

Megaupload

Thanks to StrannikSN

I corrected track listing. Sorry !!!!

log
Exact Audio Copy V0.99 prebeta 5 from 4. May 2009

Отчёт EAC об извлечении, выполненном 5. сентября 2009, 19:52

Digger / Stronger Than Ever

Дисковод: ATAPI iHAS422 8 Adapter: 1 ID: 1

Режим чтения : Достоверность
Использование точного потока : Да
Отключение кэша аудио : Да
Использование указателей C2 : Нет

Коррекция смещения при чтении : 6
Способность читать области Lead-in и Lead-out : Нет
Заполнение пропущенных сэмплов тишиной : Да
Удаление блоков с тишиной в начале и конце : Нет
При вычислениях CRC использовались нулевые сэмплы : Да
Интерфейс : Установленный внешний ASPI-интерфейс

Выходной формат : Внутренние WAV-операции
Формат сэмплов : 44.100 Гц; 16 бит; стерео

TOC извлечённого CD

Трек | Старт | Длительность | Начальный сектор | Конечный сектор
---------------------------------------------------------------------
1 | 0:00.00 | 4:36.10 | 0 | 20709
2 | 4:36.10 | 4:20.50 | 20710 | 40259
3 | 8:56.60 | 4:33.45 | 40260 | 60779
4 | 13:30.30 | 3:46.08 | 60780 | 77737
5 | 17:16.38 | 3:04.17 | 77738 | 91554
6 | 20:20.55 | 4:21.11 | 91555 | 111140
7 | 24:41.66 | 3:51.71 | 111141 | 128536
8 | 28:33.62 | 3:53.59 | 128537 | 146070
9 | 32:27.46 | 3:59.22 | 146071 | 164017
10 | 36:26.68 | 2:45.50 | 164018 | 176442

Характеристики диапазона извлечения и сообщения об ошибках

Выбранный диапазон

Имя файла D:\Audio\Digger - Stronger Than Ever.wav

Пиковый уровень 98.1 %
Качество диапазона 100.0 %
CRC копии 39986FA7
Копирование... OK

Ошибок не произошло

AccurateRip: сводка

Ни одного трека нет в базе AccurateRip

Конец отчёта


cue
REM GENRE "Heavy Metal"
REM DATE 1986
REM DISCID 8909300A
REM COMMENT "ExactAudioCopy v0.99pb5"
PERFORMER "Digger"
TITLE "Stronger Than Ever"
FILE "Digger - Stronger Than Ever.ape" APE
TRACK 01 AUDIO
TITLE "Wanna Get Close"
PERFORMER "Digger"
INDEX 01 00:00:00
TRACK 02 AUDIO
TITLE "Don't Leave Me Lonely"
PERFORMER "Digger"
INDEX 01 04:36:10
TRACK 03 AUDIO
TITLE "Stronger Than Ever"
PERFORMER "Digger"
INDEX 01 08:56:60
TRACK 04 AUDIO
TITLE "Monnriders"
PERFORMER "Digger"
INDEX 01 13:30:30
TRACK 05 AUDIO
TITLE "Lay It Down"
PERFORMER "Digger"
INDEX 01 17:16:38
TRACK 06 AUDIO
TITLE "Don't Need Your Love"
PERFORMER "Digger"
INDEX 01 20:20:55
TRACK 07 AUDIO
TITLE "Listen To The Music"
PERFORMER "Digger"
INDEX 01 24:41:66
TRACK 08 AUDIO
TITLE "Stay 'Til The Morning"
PERFORMER "Digger"
INDEX 01 28:33:62
TRACK 09 AUDIO
TITLE "Stand Up And Rock"
PERFORMER "Digger"
INDEX 01 32:27:46
TRACK 10 AUDIO
TITLE "Shadows Of The Past"
PERFORMER "Digger"
INDEX 01 36:26:68


Last edited by glory11 on 28 May 2010, edited 3 times in total.

Top
 Profile E-mail  
 
 
PostPosted: 27 May 2010 
Хиппей (support team)
User avatar
Joined: 30 Jul 2007
Posts: 112689
Lоcаtion: Киев (Kyiv, UA)
Age: 45
Name: Andrey
Жень, ну давай.
А я пока скачаю по ссылке файл и сравним.

_________________


Top
 Profile E-mail  
 
 
PostPosted: 28 May 2010 
А может смените мне статус?..
Joined: 03 Jul 2009
Posts: 868
Lоcаtion: Serbia
Name: Laki
Sorry for not posting log . I posted the album as it was posted by Stranik on Rutracker. I can post log and mend my mistake. :oops: But cue is still the problem. I don't know how to make one :oops:


Top
 Profile E-mail  
 
 
PostPosted: 28 May 2010 
Хиппей (support team)
User avatar
Joined: 30 Jul 2007
Posts: 112689
Lоcаtion: Киев (Kyiv, UA)
Age: 45
Name: Andrey
Ну вот куй и лог этого рипа...

log
Exact Audio Copy V0.99 prebeta 5 from 4. May 2009

Отчёт EAC об извлечении, выполненном 5. сентября 2009, 19:52

Digger / Stronger Than Ever

Дисковод: ATAPI iHAS422 8 Adapter: 1 ID: 1

Режим чтения : Достоверность
Использование точного потока : Да
Отключение кэша аудио : Да
Использование указателей C2 : Нет

Коррекция смещения при чтении : 6
Способность читать области Lead-in и Lead-out : Нет
Заполнение пропущенных сэмплов тишиной : Да
Удаление блоков с тишиной в начале и конце : Нет
При вычислениях CRC использовались нулевые сэмплы : Да
Интерфейс : Установленный внешний ASPI-интерфейс

Выходной формат : Внутренние WAV-операции
Формат сэмплов : 44.100 Гц; 16 бит; стерео

TOC извлечённого CD

Трек | Старт | Длительность | Начальный сектор | Конечный сектор
---------------------------------------------------------------------
1 | 0:00.00 | 4:36.10 | 0 | 20709
2 | 4:36.10 | 4:20.50 | 20710 | 40259
3 | 8:56.60 | 4:33.45 | 40260 | 60779
4 | 13:30.30 | 3:46.08 | 60780 | 77737
5 | 17:16.38 | 3:04.17 | 77738 | 91554
6 | 20:20.55 | 4:21.11 | 91555 | 111140
7 | 24:41.66 | 3:51.71 | 111141 | 128536
8 | 28:33.62 | 3:53.59 | 128537 | 146070
9 | 32:27.46 | 3:59.22 | 146071 | 164017
10 | 36:26.68 | 2:45.50 | 164018 | 176442

Характеристики диапазона извлечения и сообщения об ошибках

Выбранный диапазон

Имя файла D:\Audio\Digger - Stronger Than Ever.wav

Пиковый уровень 98.1 %
Качество диапазона 100.0 %
CRC копии 39986FA7
Копирование... OK

Ошибок не произошло

AccurateRip: сводка

Ни одного трека нет в базе AccurateRip

Конец отчёта


cue
REM GENRE "Heavy Metal"
REM DATE 1986
REM DISCID 8909300A
REM COMMENT "ExactAudioCopy v0.99pb5"
PERFORMER "Digger"
TITLE "Stronger Than Ever"
FILE "Digger - Stronger Than Ever.ape" APE
TRACK 01 AUDIO
TITLE "Wanna Get Close"
PERFORMER "Digger"
INDEX 01 00:00:00
TRACK 02 AUDIO
TITLE "Don't Leave Me Lonely"
PERFORMER "Digger"
INDEX 01 04:36:10
TRACK 03 AUDIO
TITLE "Stronger Than Ever"
PERFORMER "Digger"
INDEX 01 08:56:60
TRACK 04 AUDIO
TITLE "Monnriders"
PERFORMER "Digger"
INDEX 01 13:30:30
TRACK 05 AUDIO
TITLE "Lay It Down"
PERFORMER "Digger"
INDEX 01 17:16:38
TRACK 06 AUDIO
TITLE "Don't Need Your Love"
PERFORMER "Digger"
INDEX 01 20:20:55
TRACK 07 AUDIO
TITLE "Listen To The Music"
PERFORMER "Digger"
INDEX 01 24:41:66
TRACK 08 AUDIO
TITLE "Stay 'Til The Morning"
PERFORMER "Digger"
INDEX 01 28:33:62
TRACK 09 AUDIO
TITLE "Stand Up And Rock"
PERFORMER "Digger"
INDEX 01 32:27:46
TRACK 10 AUDIO
TITLE "Shadows Of The Past"
PERFORMER "Digger"
INDEX 01 36:26:68


..добавил всё это и в первый пост...

_________________


Top
 Profile E-mail  
 
 
PostPosted: 30 Jun 2011 
Пионэръ
User avatar
Joined: 30 Jun 2011
Posts: 36
Lоcаtion: Буркина-Фасо
Name: Евгений
Рип с винила нужен ?


Top
 Profile  
 
 
PostPosted: 04 Jul 2011 
Хиппей (support team)
User avatar
Joined: 30 Jul 2007
Posts: 112689
Lоcаtion: Киев (Kyiv, UA)
Age: 45
Name: Andrey
Евгений, если это рип от Андрея http://rutracker.org/forum/viewtopic.php?t=3487632 ,то уже нет :pardon:

_________________


Top
 Profile E-mail  
 
 
PostPosted: 05 Jul 2011 
Пионэръ
User avatar
Joined: 30 Jun 2011
Posts: 36
Lоcаtion: Буркина-Фасо
Name: Евгений
2Scatterbrain
Понятно ;)


Top
 Profile  
 
Display posts from previous:  Sort by  
Post new topic Reply to topic  [ 26 posts ]  Go to page Previous  1, 2

All times are UTC + 3 hours


Who is online

Users browsing this forum: No registered users and 2 guests


You cannot post new topics in this forum
You cannot reply to topics in this forum
You cannot edit your posts in this forum
You cannot delete your posts in this forum
You cannot post attachments in this forum

Search for:
Яндекс.Метрика
Powered by phpBB © 2000, 2002, 2005, 2007 phpBB Group