\m/ 80's metal \m/

Информационно-аналитический форум "80 см пыли" (In Search We Trust) "У нас никто никуда не спешит"
Me For You - http://me-4u.com
It is currently 18 Sep 2019

All times are UTC + 3 hours

Spoiler
Chat - temporary registration for foreign users (please leave your application here)







Post new topic Reply to topic  [ 15 posts ] 
Author Message
 
PostPosted: 13 Sep 2009 
Я набрал 1000 сообщений!
User avatar
Joined: 25 Dec 2008
Posts: 1545
Age: 44
Name: Павел
Danger - Danger
Genre:Heavy Metal
Country:Belgium
Year:1981
Format:WV+log+cue+covers
Size:245 Mb
log
EAC extraction logfile from 26. May 2007, 15:31 for CD
Danger / Danger

Used drive : LITE-ON DVDRW SHM-165P6S Adapter: 1 ID: 1
Read mode : Secure with NO C2, accurate stream, disable cache
Read offset correction : 6
Overread into Lead-In and Lead-Out : No

Used output format : Internal WAV Routines
44.100 Hz; 16 Bit; Stereo

Other options :
Fill up missing offset samples with silence : Yes
Delete leading and trailing silent blocks : No
Native Win32 interface for Win NT & 2000


Range status and errors
Selected range
Filename J:\Danger - Danger.wav

Peak level 87.7 %
Range quality 100.0 %
CRC 679F5B24
Copy OK

No errors occured

End of status report

cue
REM GENRE "Heavy Metal"
REM DATE 1981
REM DISCID 8808490A
REM COMMENT "ExactAudioCopy v0.95b4"
PERFORMER "Danger"
TITLE "Danger"
FILE "Danger - Danger.wav" WAVE
TRACK 01 AUDIO
TITLE "Ready For You"
PERFORMER "Danger"
INDEX 01 00:00:00
TRACK 02 AUDIO
TITLE "Where Is The Love"
PERFORMER "Danger"
INDEX 00 03:03:40
INDEX 01 03:05:37
TRACK 03 AUDIO
TITLE "Girl"
PERFORMER "Danger"
INDEX 00 06:34:11
INDEX 01 06:36:45
TRACK 04 AUDIO
TITLE "Woman"
PERFORMER "Danger"
INDEX 00 10:22:11
INDEX 01 10:25:55
TRACK 05 AUDIO
TITLE "Can I Talk To You"
PERFORMER "Danger"
INDEX 00 13:36:14
INDEX 01 13:38:60
TRACK 06 AUDIO
TITLE "Mean Streak"
PERFORMER "Danger"
INDEX 00 17:10:01
INDEX 01 17:11:35
TRACK 07 AUDIO
TITLE "Everything's Gonna Be Alright"
PERFORMER "Danger"
INDEX 00 21:06:71
INDEX 01 21:09:30
TRACK 08 AUDIO
TITLE "On The Run"
PERFORMER "Danger"
INDEX 00 24:32:72
INDEX 01 24:35:52
TRACK 09 AUDIO
TITLE "Without You"
PERFORMER "Danger"
INDEX 00 28:45:36
INDEX 01 28:49:42
TRACK 10 AUDIO
TITLE "I Wanna Be Free"
PERFORMER "Danger"
INDEX 00 32:44:11
INDEX 01 32:46:40

Image

Tracklist:
1. Ready for You
2. Where is the Love
3. Girl
4. Woman
5. Can I Talk to You
6. Meanstreak
7. Everything's Gonna be Alright
8. On the Run
9. Without You
10. I Wanna be Free

Danger [1981] [CD] Danger [EAC-WV] by frafra64 [MeTaLMaDNeSS.TeaM].rar

http://www.metal-archives.com/band.php?id=24240

Релиз от frafra64


Top
 Profile  
 
 
PostPosted: 13 Sep 2009 
хард н хэвщик (support team)
User avatar
Joined: 02 Jun 2008
Posts: 16881
Lоcаtion: Н.Новгород
Age: 32
Name: Артем
Паш, а коверочки, в особенности задник можешь залить сюды? в каком году было переиздание на CD ?


Top
 Profile  
 
 
PostPosted: 13 Sep 2009 
Хиппей (support team)
User avatar
Joined: 30 Jul 2007
Posts: 114377
Lоcаtion: Киев (Kyiv, UA)
Age: 46
Name: Andrey
:thanx:

_________________


Top
 Profile E-mail  
 
 
PostPosted: 13 Sep 2009 
А может смените мне статус?..
Joined: 03 Jul 2009
Posts: 883
Lоcаtion: Serbia
Name: Laki
Thanks :thanx:


Top
 Profile E-mail  
 
 
PostPosted: 13 Sep 2009 
Я набрал 1000 сообщений!
User avatar
Joined: 25 Dec 2008
Posts: 1545
Age: 44
Name: Павел
В 1994 MMS Group.Mausoleum похоже из этой же шайки.Заливку картинок пока не освоил :fingal:


Top
 Profile  
 
 
PostPosted: 13 Sep 2009 
хард н хэвщик (support team)
User avatar
Joined: 02 Jun 2008
Posts: 16881
Lоcаtion: Н.Новгород
Age: 32
Name: Артем
Пашк, ничего сложного:
www.radikal.ru
убираешь галку с Уменьшить до 640 пикселей , и в ОБЗОР выбираешь нужную картинку на жестком диске


Top
 Profile  
 
 
PostPosted: 13 Sep 2009 
Old Time Rock`n`Roll
User avatar
Joined: 23 Jun 2008
Posts: 3477
Lоcаtion: г.Ульяновск
Age: 41
Name: Константин
Спасибо, но уж дотерплю в осле, немного осталось


Top
 Profile  
 
 
PostPosted: 18 Mar 2010 
Thrasher
User avatar
Joined: 07 Oct 2007
Posts: 2782
Lоcаtion: Russia, Moscow
Age: 35
Name: Drunk & Evil
помёрла сцылочка :cry:

_________________
ВОДКА, БАБЫ И БЛЮЗ / 40° till death... :bodun:
One time we saw some hookers, but when we got closer, we realised it was Mötley Crüe. ©


Top
 Profile  
 
 
PostPosted: 19 Mar 2010 
Old Time Rock`n`Roll
User avatar
Joined: 23 Jun 2008
Posts: 3477
Lоcаtion: г.Ульяновск
Age: 41
Name: Константин
Danger - Danger (1981), 245 Mb
megaupload-album

отдельно обложки, фронт & бэк, 7 Mb
megaupload-сovers


Top
 Profile  
 
 
PostPosted: 20 Mar 2010 
Thrasher
User avatar
Joined: 07 Oct 2007
Posts: 2782
Lоcаtion: Russia, Moscow
Age: 35
Name: Drunk & Evil
Спасибо! :thanx:

_________________
ВОДКА, БАБЫ И БЛЮЗ / 40° till death... :bodun:
One time we saw some hookers, but when we got closer, we realised it was Mötley Crüe. ©


Top
 Profile  
 
 
PostPosted: 26 Aug 2013 
Хиппей (support team)
User avatar
Joined: 30 Jul 2007
Posts: 114377
Lоcаtion: Киев (Kyiv, UA)
Age: 46
Name: Andrey
mirror: eDisk l F-Bit l Narod

Альбом весьма порадовал :meloman:
Эдакая бельгийская версия NWOHM/Hard Rock с вокалом красивым в духе Йена Гиллана и одновременно Ковэрдэйла.

log
EAC extraction logfile from 26. May 2007, 15:31 for CD
Danger / Danger

Used drive : LITE-ON DVDRW SHM-165P6S Adapter: 1 ID: 1
Read mode : Secure with NO C2, accurate stream, disable cache
Read offset correction : 6
Overread into Lead-In and Lead-Out : No

Used output format : Internal WAV Routines
44.100 Hz; 16 Bit; Stereo

Other options :
Fill up missing offset samples with silence : Yes
Delete leading and trailing silent blocks : No
Native Win32 interface for Win NT & 2000


Range status and errors
Selected range
Filename J:\Danger - Danger.wav

Peak level 87.7 %
Range quality 100.0 %
CRC 679F5B24
Copy OK

No errors occured

End of status report

cue
REM GENRE "Heavy Metal"
REM DATE 1981
REM DISCID 8808490A
REM COMMENT "ExactAudioCopy v0.95b4"
PERFORMER "Danger"
TITLE "Danger"
FILE "Danger - Danger.wv" WAVE
TRACK 01 AUDIO
TITLE "Ready For You"
PERFORMER "Danger"
INDEX 01 00:00:00
TRACK 02 AUDIO
TITLE "Where Is The Love"
PERFORMER "Danger"
INDEX 00 03:03:40
INDEX 01 03:05:37
TRACK 03 AUDIO
TITLE "Girl"
PERFORMER "Danger"
INDEX 00 06:34:11
INDEX 01 06:36:45
TRACK 04 AUDIO
TITLE "Woman"
PERFORMER "Danger"
INDEX 00 10:22:11
INDEX 01 10:25:55
TRACK 05 AUDIO
TITLE "Can I Talk To You"
PERFORMER "Danger"
INDEX 00 13:36:14
INDEX 01 13:38:60
TRACK 06 AUDIO
TITLE "Mean Streak"
PERFORMER "Danger"
INDEX 00 17:10:01
INDEX 01 17:11:35
TRACK 07 AUDIO
TITLE "Everything's Gonna Be Alright"
PERFORMER "Danger"
INDEX 00 21:06:71
INDEX 01 21:09:30
TRACK 08 AUDIO
TITLE "On The Run"
PERFORMER "Danger"
INDEX 00 24:32:72
INDEX 01 24:35:52
TRACK 09 AUDIO
TITLE "Without You"
PERFORMER "Danger"
INDEX 00 28:45:36
INDEX 01 28:49:42
TRACK 10 AUDIO
TITLE "I Wanna Be Free"
PERFORMER "Danger"
INDEX 00 32:44:11
INDEX 01 32:46:40

_________________


Top
 Profile E-mail  
 
 
PostPosted: 26 Aug 2013 
Хиппей (support team)
User avatar
Joined: 30 Jul 2007
Posts: 114377
Lоcаtion: Киев (Kyiv, UA)
Age: 46
Name: Andrey
И здесь пусть балладка побудет :dance:

phpBB [youtube]

_________________


Top
 Profile E-mail  
 
 
PostPosted: 26 Aug 2013 
\m/ 80 см сала \m/
User avatar
Joined: 12 Mar 2012
Posts: 2590
Age: 26
Name: Nick
Хороша баладка :meloman:
Кстати, а что это они на М-А не находятся? Или это очередные прииски жанрового срача, как было в случае с британцами Legend?

_________________
1990 AUROPHON BRAINSTORM (Germany) - lossless
1994 MAUSOLEUM CLASSIX (Belgium-Germany) - lossless
1998 VA - GRIM HARVEST - Complete Metal Massacre Volumes I-XII


Top
 Profile  
 
 
PostPosted: 26 Aug 2013 
Хиппей (support team)
User avatar
Joined: 30 Jul 2007
Posts: 114377
Lоcаtion: Киев (Kyiv, UA)
Age: 46
Name: Andrey
Но тут по жанру как раз процентов 70 где-то хар-дрок, так что да, они где-то там в глубине модерской дружины и правы :pardon:

_________________


Top
 Profile E-mail  
 
 
PostPosted: 11 Feb 2019 
Rara avis
User avatar
Joined: 27 Jan 2009
Posts: 5263
Name: .
Сингл продается. Можно песни забрать с лота. Позже перелью в 128 сюда. Лишним не будет.
https://www.ebay.com/itm/DANGER-1981-Be ... rk:11:pf:0


Top
 Profile E-mail  
 
Display posts from previous:  Sort by  
Post new topic Reply to topic  [ 15 posts ] 

All times are UTC + 3 hours


Who is online

Users browsing this forum: No registered users and 1 guest


You cannot post new topics in this forum
You cannot reply to topics in this forum
You cannot edit your posts in this forum
You cannot delete your posts in this forum
You cannot post attachments in this forum

Search for:
Яндекс.Метрика
Powered by phpBB © 2000, 2002, 2005, 2007 phpBB Group