\m/ 80's metal \m/

Информационно-аналитический форум "80 см пыли" (In Search We Trust) "У нас никто никуда не спешит"
Me For You - http://me-4u.com
It is currently 24 May 2019

All times are UTC + 3 hours

Spoiler
Chat - temporary registration for foreign users (please leave your application here)







Post new topic Reply to topic  [ 21 posts ]  Go to page 1, 2  Next
Author Message
 
PostPosted: 03 Sep 2009 
udo
User avatar
Joined: 01 Mar 2008
Posts: 2343
Lоcаtion: Краснодар
Age: 48
Name: РОМАН
Damien (US) - Every Dog Has Its Day

Image

<Year:> 1988
<Style:> heavy/power metal
<Country:> heavy/power metal
<Format:> APE+CUE

<Size:> 270 mb

<Tracklist:>
1. Wolf Dreams 04:47
2. Posession 03:37
3. Serpents Rising 03:00
4. Give Me a Sign 04:52
5. Every Dog Has Its Day 04:44
6. World Affair 04:43
7. Seasons of the Arrow 05:48
8. I Play For You 05:21
9. Glass City 01:49
10. Race to the End 03:51
Total playing time 42:32

http://spinoza.ifolder.ru/13830238
http://spinoza.ifolder.ru/13830558
http://spinoza.ifolder.ru/13830934


Top
 Profile E-mail  
 
 
PostPosted: 03 Sep 2009 
Работнечег
User avatar
Joined: 28 Aug 2007
Posts: 5838
Lоcаtion: г. Москва
Age: 30
Name: Дима
Спасибо Ром! :true:


Top
 Profile E-mail  
 
 
PostPosted: 03 Sep 2009 
Хиппей (support team)
User avatar
Joined: 30 Jul 2007
Posts: 112772
Lоcаtion: Киев (Kyiv, UA)
Age: 45
Name: Andrey
Это переиздание или чего? :vic:

odu wrote:
<Country:> heavy/power metal

Хочу туда :true:

_________________


Top
 Profile E-mail  
 
 
PostPosted: 03 Sep 2009 
udo
User avatar
Joined: 01 Mar 2008
Posts: 2343
Lоcаtion: Краснодар
Age: 48
Name: РОМАН
Scatterbrain wrote:
Хочу туда

Всевидящие око ничего не пропустит


Top
 Profile E-mail  
 
 
PostPosted: 03 Sep 2009 
Хиппей (support team)
User avatar
Joined: 30 Jul 2007
Posts: 112772
Lоcаtion: Киев (Kyiv, UA)
Age: 45
Name: Andrey
Scatterbrain wrote:
Это переиздание или чего? :vic:

_________________


Top
 Profile E-mail  
 
 
PostPosted: 04 Sep 2009 
udo
User avatar
Joined: 01 Mar 2008
Posts: 2343
Lоcаtion: Краснодар
Age: 48
Name: РОМАН
НАВЕРНОЕ НЕТ


Top
 Profile E-mail  
 
 
PostPosted: 04 Sep 2009 
Я набрал 1000 сообщений!
User avatar
Joined: 25 Dec 2008
Posts: 1545
Age: 43
Name: Павел
Если с ММТ,то это с оригинального LP.


Top
 Profile  
 
 
PostPosted: 04 Sep 2009 
Хиппей (support team)
User avatar
Joined: 30 Jul 2007
Posts: 112772
Lоcаtion: Киев (Kyiv, UA)
Age: 45
Name: Andrey
hawkhunter wrote:
Если с ММТ

А вот хз. Насколько я понял, лога внутри то нету?

_________________


Top
 Profile E-mail  
 
 
PostPosted: 04 Sep 2009 
udo
User avatar
Joined: 01 Mar 2008
Posts: 2343
Lоcаtion: Краснодар
Age: 48
Name: РОМАН
hawkhunter wrote:
Если с ММТ

НЕ ПО ОБмену


Top
 Profile E-mail  
 
 
PostPosted: 04 Sep 2009 
Хиппей (support team)
User avatar
Joined: 30 Jul 2007
Posts: 112772
Lоcаtion: Киев (Kyiv, UA)
Age: 45
Name: Andrey
odu wrote:
НЕ ПО ОБмену

О, так чего ж сразу источник не указать? :vic:
Пусть даже тот человек и не качал релиз с ММТ, но мы хоть бы знали, откуда сам рип. То есть, в описании пометка "получено по обмену" неплохо бы смотрелась.

_________________


Top
 Profile E-mail  
 
 
PostPosted: 04 Sep 2009 
udo
User avatar
Joined: 01 Mar 2008
Posts: 2343
Lоcаtion: Краснодар
Age: 48
Name: РОМАН
Scatterbrain wrote:
О, так чего ж сразу источник не указать?
Пусть даже тот человек и не качал релиз с ММТ, но мы хоть бы знали, откуда сам рип. То есть, в описании пометка "получено по обмену" неплохо бы смотрелась.

надеюсь несмертельно


Top
 Profile E-mail  
 
 
PostPosted: 21 Feb 2010 
Пионэръ
Joined: 04 Oct 2009
Posts: 33
Name: Джузеппе
Этот замечательный диск увы, удалён....


Top
 Profile E-mail  
 
 
PostPosted: 25 Feb 2010 
udo
User avatar
Joined: 01 Mar 2008
Posts: 2343
Lоcаtion: Краснодар
Age: 48
Name: РОМАН
torelli wrote:
Этот замечательный диск увы, удалён....

напомни чуть позже


Top
 Profile E-mail  
 
 
PostPosted: 25 Feb 2010 
Персональный статус
User avatar
Joined: 02 Feb 2009
Posts: 236
Lоcаtion: Тульская область
Age: 53
Name: Владимир
odu
Этот альбом с логом и картинками я заливал для ННМ и ссылки еще живы.
Могу кинуть ссылки, лог, куй - подправишь новость и не надо боле ничего никуда лить.

_________________
http://img254.imageshack.us/img254/1015 ... 743574.gif
http://img140.imageshack.us/img140/7192 ... arlogo.jpg


Top
 Profile  
 
 
PostPosted: 26 Feb 2010 
Генеральный thrasher
User avatar
Joined: 03 Oct 2008
Posts: 3708
Lоcаtion: Ханты-Мансийский АО
Age: 44
Name: Сергей
crimson22 wrote:
Этот альбом с логом и картинками я заливал для ННМ и ссылки еще живы.
Могу кинуть ссылки, лог, куй - подправишь новость и не надо боле ничего никуда лить.


Владимир,может просто сам сюда ссылочки закинешь?


Top
 Profile  
 
 
PostPosted: 27 Feb 2010 
Персональный статус
User avatar
Joined: 02 Feb 2009
Posts: 236
Lоcаtion: Тульская область
Age: 53
Name: Владимир
thorbeorn wrote:
Владимир,может просто сам сюда ссылочки закинешь?

Вообще-то новость не моя и думаю не совсем корректно вот так просто закинуть ссылки.
Я пока предложил свою помощь в продлении жизни новости, а хозяин сам решит что с этим делать.
А мы ведь никуда не торопимся :true:

_________________
http://img254.imageshack.us/img254/1015 ... 743574.gif
http://img140.imageshack.us/img140/7192 ... arlogo.jpg


Top
 Profile  
 
 
PostPosted: 03 Mar 2010 
udo
User avatar
Joined: 01 Mar 2008
Posts: 2343
Lоcаtion: Краснодар
Age: 48
Name: РОМАН
crimson22 wrote:
не совсем корректно вот так просто закинуть ссылки

ДА НЕ , все нормально и заморачиваться не буду :thanx:


Top
 Profile E-mail  
 
 
PostPosted: 03 Mar 2010 
Персональный статус
User avatar
Joined: 02 Feb 2009
Posts: 236
Lоcаtion: Тульская область
Age: 53
Name: Владимир
Тогда кидаю сюда весь набор, а там уже разберетесь.

"Лог"
Exact Audio Copy V0.99 prebeta 4 from 23. January 2008

EAC extraction logfile from 14. January 2010, 11:13

Damien / Every Dog Has It's Day (SED-21622)

Used drive : HL-DT-STDVDRAM GH22NS50 Adapter: 2 ID: 0

Read mode : Secure
Utilize accurate stream : Yes
Defeat audio cache : Yes
Make use of C2 pointers : No

Read offset correction : 667
Overread into Lead-In and Lead-Out : No
Fill up missing offset samples with silence : Yes
Delete leading and trailing silent blocks : No
Null samples used in CRC calculations : No
Used interface : Native Win32 interface for Win NT & 2000

Used output format : User Defined Encoder
Selected bitrate : 1024 kBit/s
Quality : High
Add ID3 tag : No
Command line compressor : C:\Program Files\Exact Audio Copy\FLAC\FLAC.EXE
Additional command line options : -6 -V -T "ARTIST=%a" -T "TITLE=%t" -T "ALBUM=%g" -T "DATE=%y" -T "TRACKNUMBER=%n" -T "GENRE=%m" -T "COMMENT=%e" %s -o %d


TOC of the extracted CD

Track | Start | Length | Start sector | End sector
---------------------------------------------------------
1 | 0:00.00 | 4:46.65 | 0 | 21514
2 | 4:46.65 | 4:37.57 | 21515 | 42346
3 | 9:24.47 | 3:00.08 | 42347 | 55854
4 | 12:24.55 | 4:52.07 | 55855 | 77761
5 | 17:16.62 | 4:43.73 | 77762 | 99059
6 | 22:00.60 | 4:42.72 | 99060 | 120281
7 | 26:43.57 | 5:48.33 | 120282 | 146414
8 | 32:32.15 | 5:21.07 | 146415 | 170496
9 | 37:53.22 | 1:49.35 | 170497 | 178706
10 | 39:42.57 | 3:51.35 | 178707 | 196066


Range status and errors

Selected range

Filename C:\Documents and Settings\Owner\Desktop\Damien Complete Collection by SacrifyX\Every Dog Has It's Day (Original 1st Press - SED-21622)\Damien - Every Dog Has It's Day (SED-21622).wav

Peak level 100.0 %
Range quality 100.0 %
Copy CRC 7FAB1C39
Copy OK

No errors occurred


AccurateRip summary

Track 1 not present in database
Track 2 not present in database
Track 3 not present in database
Track 4 not present in database
Track 5 not present in database
Track 6 not present in database
Track 7 not present in database
Track 8 not present in database
Track 9 not present in database
Track 10 not present in database

None of the tracks are present in the AccurateRip database

End of status report

"Куй"
REM GENRE "Heavy Metal"
REM DATE 1987
REM DISCID 8A0A360A
REM COMMENT "EvilDeadRules99@Hotmail.com"
PERFORMER "Damien"
TITLE "Every Dog Has It's Day (SED-21622)"
FILE "Damien - Every Dog Has It's Day (SED-21622).flac" WAVE
TRACK 01 AUDIO
TITLE "Wolf Dreams"
PERFORMER "Damien"
INDEX 01 00:00:00
TRACK 02 AUDIO
TITLE "Possesion"
PERFORMER "Damien"
INDEX 01 04:46:65
TRACK 03 AUDIO
TITLE "Serpents Rising"
PERFORMER "Damien"
INDEX 01 09:24:47
TRACK 04 AUDIO
TITLE "Give Me A Sign"
PERFORMER "Damien"
INDEX 01 12:24:55
TRACK 05 AUDIO
TITLE "Every Dog Has It's Day"
PERFORMER "Damien"
INDEX 01 17:16:62
TRACK 06 AUDIO
TITLE "World Affair"
PERFORMER "Damien"
INDEX 00 21:59:02
INDEX 01 22:00:60
TRACK 07 AUDIO
TITLE "Seasons Of The Arrow"
PERFORMER "Damien"
INDEX 01 26:43:57
TRACK 08 AUDIO
TITLE "I Play For You"
PERFORMER "Damien"
INDEX 01 32:32:15
TRACK 09 AUDIO
TITLE "Glass City"
PERFORMER "Damien"
INDEX 01 37:53:22
TRACK 10 AUDIO
TITLE "Race To The End"
PERFORMER "Damien"
INDEX 01 39:42:57

"Ссылки и все такое"
Качество: FLAC (image +.cue), log; covers
Размер: 283 мб (+3%)
Источник: Demonoid by SacrifyX
Часть1
Часть2
Часть3
Pass: MU

_________________
http://img254.imageshack.us/img254/1015 ... 743574.gif
http://img140.imageshack.us/img140/7192 ... arlogo.jpg


Top
 Profile  
 
 
PostPosted: 04 Mar 2010 
metallpaparazzy
User avatar
Joined: 20 Dec 2009
Posts: 674
Lоcаtion: Днепропетровск
Age: 44
Name: Геннадий
:thanx: :thanx: :thanx:


Top
 Profile E-mail  
 
 
PostPosted: 06 Mar 2010 
Пионэръ
Joined: 04 Oct 2009
Posts: 33
Name: Джузеппе
Благодарствую, crimson22 :dance:


Top
 Profile E-mail  
 
Display posts from previous:  Sort by  
Post new topic Reply to topic  [ 21 posts ]  Go to page 1, 2  Next

All times are UTC + 3 hours


Who is online

Users browsing this forum: No registered users and 2 guests


You cannot post new topics in this forum
You cannot reply to topics in this forum
You cannot edit your posts in this forum
You cannot delete your posts in this forum
You cannot post attachments in this forum

Search for:
Яндекс.Метрика
Powered by phpBB © 2000, 2002, 2005, 2007 phpBB Group