\m/ 80's metal \m/

Информационно-аналитический форум "80 см пыли" (In Search We Trust) "У нас никто никуда не спешит"
Me For You - http://me-4u.com
It is currently 21 Jul 2019

All times are UTC + 3 hours

Spoiler
Chat - temporary registration for foreign users (please leave your application here)







Post new topic Reply to topic  [ 13 posts ] 
Author Message
 
PostPosted: 05 Apr 2009 
Я набрал 1000 сообщений!
Joined: 12 Dec 2008
Posts: 1066
Lоcаtion: BULGARIA
Age: 40
Name: DIMITЪR
Diamond (US) - Diamond [1986]

Image

1.Lonely In Love
2.Remember the Night
3.Mirror Mirror
4.Fight Fire With Fire
5.Rock The Nation
6.One for the Heart
7.The Inatome
*********************
Вариант в 192 kbps.

http://rapidshare.com/files/217799011/Daimond.rar

Ищу альбом с 224-320kbps!!!
Thanks!!!! :true: :true: :true: :true:


Top
 Profile  
 
 
PostPosted: 05 Apr 2009 
Хиппей (support team)
User avatar
Joined: 30 Jul 2007
Posts: 113585
Lоcаtion: Киев (Kyiv, UA)
Age: 46
Name: Andrey
Хм, неужто это как принципиально? :scratch:


Top
 Profile E-mail  
 
 
PostPosted: 06 Apr 2009 
Персональный статус
Joined: 28 Mar 2009
Posts: 232
Age: 33
понравилась первая песня,а так весьма средненько :pardon:


Top
 Profile  
 
 
PostPosted: 06 Apr 2009 
А может смените мне статус?..
User avatar
Joined: 01 Sep 2008
Posts: 778
Lоcаtion: Москва, Нагорный р-н
Age: 33
Name: Vagiz
не было :dash:

_________________
........?Como estas Amigos?


Top
 Profile E-mail  
 
 
PostPosted: 07 Feb 2014 
Rara avis
User avatar
Joined: 27 Jan 2009
Posts: 5166
Name: .
viewtopic.php?f=205&t=11765&view=next


Top
 Profile E-mail  
 
 
PostPosted: 07 Feb 2014 
консэрваторъ
User avatar
Joined: 11 Aug 2007
Posts: 17053
Lоcаtion: Псков
Age: 45
Name: Сергей
Вот интересно, если в том лосином запросе альбом выложится, то этот запрос будет считаться дефакто выполненным или рекс останется, пока кто-нибудь не конвертнёт лося и случайно не найдёт эту тему... да ещё и не поленится куда-то залить... :pardon:

_________________
THRASH 'EM ALL


Top
 Profile E-mail  
 
 
PostPosted: 16 Jan 2016 
Rara avis
User avatar
Joined: 27 Jan 2009
Posts: 5166
Name: .
http://heavymetalrarities.com/forum/vie ... 69&t=22375


Top
 Profile E-mail  
 
 
PostPosted: 16 Jan 2016 
5-speed satisfactor
User avatar
Joined: 16 Feb 2009
Posts: 3738
Lоcаtion: New York, USA
Age: 41
Name: Leonid
У меня есть винил. Но нет достойного вертака. На рутрекере выложена ицифровка дешевой 50-долларовой иглой. Звук соответствующий.

_________________
Death rules! Metal to all who oppose!


Top
 Profile  
 
 
PostPosted: 16 Jan 2016 
5-speed satisfactor
User avatar
Joined: 16 Feb 2009
Posts: 3738
Lоcаtion: New York, USA
Age: 41
Name: Leonid
http://heavymetalrarities.com/forum/viewtopic.php?f=169&t=22375


Перезалей сюда.

_________________
Death rules! Metal to all who oppose!


Top
 Profile  
 
 
PostPosted: 17 Jan 2016 
Rara avis
User avatar
Joined: 27 Jan 2009
Posts: 5166
Name: .
http://heavymetalrarities.com/forum/viewtopic.php?f=169&t=22375


Перезалей сюда.

https://yadi.sk/d/2XIdIGEGn9PK4


Top
 Profile E-mail  
 
 
PostPosted: 17 Jan 2016 
Хиппей (support team)
User avatar
Joined: 30 Jul 2007
Posts: 113585
Lоcаtion: Киев (Kyiv, UA)
Age: 46
Name: Andrey
Вот интересно, если в том лосином запросе альбом выложится, то этот запрос будет считаться дефакто выполненным или рекс останется, пока кто-нибудь не конвертнёт лося и случайно не найдёт эту тему... да ещё и не поленится куда-то залить... :pardon:

Топики объединятся в случае нахождения лося.

_________________


Top
 Profile E-mail  
 
 
PostPosted: 17 Jan 2016 
Хиппей (support team)
User avatar
Joined: 30 Jul 2007
Posts: 113585
Lоcаtion: Киев (Kyiv, UA)
Age: 46
Name: Andrey

:thanx:

mirror: iFolder l Narod l M-Cloud

log
Exact Audio Copy V1.0 beta 6 from 9. April 2015

EAC extraction logfile from 9. November 2015, 21:31

Diamond - Diamond (1986) / -

Used drive : HL-DT-STDVDRAM GH22NS70 Adapter: 1 ID: 1

Read mode : Fast

Combined read/write offset correction : 0
Overread into Lead-In and Lead-Out : No
Fill up missing offset samples with silence : Yes
Delete leading and trailing silent blocks : No
Null samples used in CRC calculations : Yes
Used interface : Native Win32 interface for Win NT & 2000

Used output format : User Defined Encoder
Selected bitrate : 768 kBit/s
Quality : High
Add ID3 tag : No
Command line compressor : C:\Program Files (x86)\Exact Audio Copy\FLAC\FLAC.EXE
Additional command line options : -6 -V -T "ARTIST=%artist%" -T "TITLE=%title%" -T "ALBUM=%albumtitle%" -T "DATE=%year%" -T "TRACKNUMBER=%tracknr%" -T "GENRE=%genre%" -T "COMMENT=%comment%" -T "BAND=%albuminterpret%" -T "ALBUMARTIST=%albuminterpret%" -T "COMPOSER=%composer%" %haslyrics%--tag-from-file=LYRICS="%lyricsfile%"%haslyrics% -T "DISCNUMBER=%cdnumber%" -T "TOTALDISCS=%totalcds%" -T "TOTALTRACKS=%numtracks%" %hascover%--picture="%coverfile%"%hascover% %source% -o %dest%


TOC of the extracted CD

Track | Start | Length | Start sector | End sector
---------------------------------------------------------
1 | 0:01.00 | 6:07.53 | 75 | 27652
2 | 6:08.53 | 4:12.02 | 27653 | 46554
3 | 10:20.55 | 5:02.28 | 46555 | 69232
4 | 15:23.08 | 5:06.10 | 69233 | 92192
5 | 20:29.18 | 3:28.38 | 92193 | 107830
6 | 23:57.56 | 4:30.70 | 107831 | 128150
7 | 28:28.51 | 5:15.60 | 128151 | 151835


Range status and errors

Selected range

Filename D:\Probna VIDEO\Diamond - Diamond (1986).wav

Peak level 100.0 %
Extraction speed 17.5 X
Copy CRC F3CB9B65
Copy OK

No errors occurred

End of status report

---- CUETools DB Plugin V2.1.6

[CTDB TOCID: ZJjR3I4leD19DIvi_mhrPafREUc-] disk not present in database
Submit result: insufficient quality

cue
REM DISCID 4807E707
REM COMMENT "ExactAudioCopy v1.0b6"
PERFORMER "Diamond - Diamond (1986)"
TITLE ""
FILE "Diamond - Diamond (1986).flac" WAVE
TRACK 01 AUDIO
TITLE "Intro / Lonely In Love"
PERFORMER "Diamond - Diamond (1986)"
INDEX 00 00:00:00
INDEX 01 00:01:00
TRACK 02 AUDIO
TITLE "Remember The Night"
PERFORMER "Diamond - Diamond (1986)"
INDEX 01 06:08:53
TRACK 03 AUDIO
TITLE "Mirror, Mirror"
PERFORMER "Diamond - Diamond (1986)"
INDEX 01 10:20:55
TRACK 04 AUDIO
TITLE "Fight Fire With Fire"
PERFORMER "Diamond - Diamond (1986)"
INDEX 01 15:23:08
TRACK 05 AUDIO
TITLE "Rock The Nation"
PERFORMER "Diamond - Diamond (1986)"
INDEX 01 20:29:18
TRACK 06 AUDIO
TITLE "One From The Heart"
PERFORMER "Diamond - Diamond (1986)"
INDEX 01 23:57:56
TRACK 07 AUDIO
TITLE "The Inatome"
PERFORMER "Diamond - Diamond (1986)"
INDEX 01 28:28:51


Не знаю, откуда Димитар взял этот рип, но чётко слышны на нём винильные щелчки и песочек. Но очень мягкие и приятные.
Качество звука и музыки меня лично тоже устроило :meloman:

_________________


Top
 Profile E-mail  
 
 
PostPosted: 17 Jan 2016 
5-speed satisfactor
User avatar
Joined: 16 Feb 2009
Posts: 3738
Lоcаtion: New York, USA
Age: 41
Name: Leonid
Спасибо Dare-Devilina. Этот получше..... :thanx:

А этот Cryptoros... это тот самый болгарин х*ев, которого забанили? То есть информации про equipment used не узнаем.....

_________________
Death rules! Metal to all who oppose!


Top
 Profile  
 
Display posts from previous:  Sort by  
Post new topic Reply to topic  [ 13 posts ] 

All times are UTC + 3 hours


Who is online

Users browsing this forum: No registered users and 2 guests


You cannot post new topics in this forum
You cannot reply to topics in this forum
You cannot edit your posts in this forum
You cannot delete your posts in this forum
You cannot post attachments in this forum

Search for:
Яндекс.Метрика
Powered by phpBB © 2000, 2002, 2005, 2007 phpBB Group