\m/ 80's metal \m/

Информационно-аналитический форум "80 см пыли" (In Search We Trust) "У нас никто никуда не спешит"
Me For You - http://me-4u.com
It is currently 25 May 2019

All times are UTC + 3 hours

Spoiler
Chat - temporary registration for foreign users (please leave your application here)







Post new topic Reply to topic  [ 37 posts ]  Go to page 1, 2  Next
Author Message
 
PostPosted: 19 Feb 2009 
Персональный статус
User avatar
Joined: 29 Jan 2009
Posts: 265
Lоcаtion: Таллин, Эстония.
Age: 32
Name: Роман Юрич
Band / Название Группы: Deathwish
Album title / Название Альбома : Demon Preacher
Year / Год Выпуска : 1989
Genre / Жанр: Thrash Metal
Country / Страна : United Kingodom

Image

Track list / Список Песен

01. 01:41 Death Procession
02. 05:21 Demon Preacher
03. 03:44 Carrion
04. 04:47 Visions Of Insanity
05. 04:37 Symptom Of The Universe (Black Sabbath cover)
06. 04:14 Wall Of Lies
07. 07:20 Prey To The Lord
08. 03:00 Fatal Attraction
09. 03:16 Past Life


Technical info / Технические данные .

Source / Источник : CD
Format / Формат : WV, -hh -x6. Lossless.
Resolution / Разрешение : 44 KHz / 16 Bit
Total playing time / Суммарное время проигрывания : 38:01
Album art / Полиграфия: Booklet, back cover, merchandise inlay, CD. | Буклет, задняя обложка, рекламный вкладыш, диск.

EAC Log
Code:
Exact Audio Copy V1.0 beta 2 from 29. April 2011

EAC extraction logfile from 27. November 2011, 10:26

Deathwish / Demon Preacher

Used drive  : ASUS    DRW-1814BLT   Adapter: 3  ID: 0

Read mode               : Secure
Utilize accurate stream : Yes
Defeat audio cache      : Yes
Make use of C2 pointers : No

Read offset correction                      : 6
Overread into Lead-In and Lead-Out          : No
Fill up missing offset samples with silence : Yes
Delete leading and trailing silent blocks   : No
Null samples used in CRC calculations       : Yes
Used interface                              : Installed external ASPI interface

Used output format : Internal WAV Routines
Sample format      : 44.100 Hz; 16 Bit; Stereo


TOC of the extracted CD

     Track |   Start  |  Length  | Start sector | End sector
    ---------------------------------------------------------
        1  |  0:00.55 |  1:41.37 |        55    |     7666   
        2  |  1:42.17 |  5:21.13 |      7667    |    31754   
        3  |  7:03.30 |  3:43.62 |     31755    |    48541   
        4  | 10:47.17 |  4:46.38 |     48542    |    70029   
        5  | 15:33.55 |  4:36.40 |     70030    |    90769   
        6  | 20:10.20 |  4:14.32 |     90770    |   109851   
        7  | 24:24.52 |  7:20.10 |    109852    |   142861   
        8  | 31:44.62 |  3:00.25 |    142862    |   156386   
        9  | 34:45.12 |  3:16.25 |    156387    |   171111   


Range status and errors

Selected range

     Filename F:\Vinyl ; CD ; Tape Rips\# Lossless Temp\Deathwish (1989) - Demon Preacher [WV]\Deathwish (1989) - Demon Preacher - WV.wav

     Peak level 91.7 %
     Extraction speed 6.6 X
     Range quality 99.9 %
     Test CRC BA49E530
     Copy CRC BA49E530
     Copy OK

No errors occurred


AccurateRip summary

Track  1  not present in database
Track  2  not present in database
Track  3  not present in database
Track  4  not present in database
Track  5  not present in database
Track  6  not present in database
Track  7  not present in database
Track  8  not present in database
Track  9  not present in database

None of the tracks are present in the AccurateRip database

End of status report

CUE Sheet
Code:
REM GENRE "Thrash Metal"
REM DATE 1989
REM DISCID 6E08E909
REM COMMENT "ExactAudioCopy v1.0b2"
PERFORMER "Deathwish"
TITLE "Demon Preacher"
FILE "Deathwish (1989) - Demon Preacher - WV.wv" WAVE
  TRACK 01 AUDIO
    TITLE "Death Procession"
    PERFORMER "Deathwish"
    INDEX 00 00:00:00
    INDEX 01 00:00:55
  TRACK 02 AUDIO
    TITLE "Demon Preacher"
    PERFORMER "Deathwish"
    INDEX 01 01:42:17
  TRACK 03 AUDIO
    TITLE "Carrion"
    PERFORMER "Deathwish"
    INDEX 01 07:03:30
  TRACK 04 AUDIO
    TITLE "Visions Of Insanity"
    PERFORMER "Deathwish"
    INDEX 01 10:47:17
  TRACK 05 AUDIO
    TITLE "Symptom Of The Universe"
    PERFORMER "Deathwish"
    INDEX 01 15:33:55
  TRACK 06 AUDIO
    TITLE "Wall Of Lies"
    PERFORMER "Deathwish"
    INDEX 01 20:10:20
  TRACK 07 AUDIO
    TITLE "Prey To The Lord"
    PERFORMER "Deathwish"
    INDEX 01 24:24:52
  TRACK 08 AUDIO
    TITLE "Fatal Attraction"
    PERFORMER "Deathwish"
    INDEX 01 31:44:62
  TRACK 09 AUDIO
    TITLE "Past Life"
    PERFORMER "Deathwish"
    INDEX 01 34:45:12


Comment / Комментарий
Второй альбом этой Британской Трэш Метал команды. Влияние Хеви Метала довольно сильное. Звучание уникальное. Попутно я вписал КУЙ в сам аудио файл. Пользователи foobar2000 могут вместо КУЯ открыть сам файл.
This is the second album by these British thrashers. The Heavy Metal influence is quite strong. The overall sound is unique. The audio file features an inbuilt CUE Sheet. Those of you using foobar2000, may open the audio files itself, instead of a CUE sheet.


Links / Ссылки

Megaupload - Lossless
Rapidshare - Lossless
MultiUp - Lossless
Narod - Lossless
Megaupload - MP3 320

_________________
Death The Ultimate Reality
Death The Ultimate Reason To Live


Last edited by MetalMilitia on 28 Nov 2011, edited 9 times in total.

Top
 Profile  
 
 
PostPosted: 19 Feb 2009 
Хиппей (support team)
User avatar
Joined: 30 Jul 2007
Posts: 112789
Lоcаtion: Киев (Kyiv, UA)
Age: 45
Name: Andrey
Спасибо, Рома :true:


Top
 Profile E-mail  
 
 
PostPosted: 19 Feb 2009 
труъ антисионист
User avatar
Joined: 01 Aug 2007
Posts: 4544
Lоcаtion: Откуда и большинство из нас
Age: 38
Name: Дядя Вова
От меня тоже мерси! :thanx:

_________________
Image
Image


Top
 Profile  
 
 
PostPosted: 19 Feb 2009 
А может смените мне статус?..
User avatar
Joined: 24 Dec 2008
Posts: 640
Age: 45
Name: Дмитрий
И от меня! :thanx: :true:


Top
 Profile  
 
 
PostPosted: 19 Feb 2009 
.
User avatar
Joined: 25 Aug 2007
Posts: 568
Lоcаtion: Москва
Age: 107
Name: Kostolom
вот за это дичайшее и мега-дьявольское спасибо!!!!!!!!!


Top
 Profile  
 
 
PostPosted: 19 Feb 2009 
Персональный статус
User avatar
Joined: 29 Jan 2009
Posts: 265
Lоcаtion: Таллин, Эстония.
Age: 32
Name: Роман Юрич
Слушайте / Кушайте наздоровье :smile:

_________________
Death The Ultimate Reality
Death The Ultimate Reason To Live


Top
 Profile  
 
 
PostPosted: 21 Feb 2009 
Труъ
User avatar
Joined: 15 Dec 2008
Posts: 131
Lоcаtion: Донбасс
Age: 46
Name: Евгений
Большое спасибо! :thanx:


Top
 Profile  
 
 
PostPosted: 27 Feb 2009 
Пионэръ
Joined: 19 Jan 2009
Posts: 34
Age: 29
Name: .
Если не сложно, то сделайте, плиз, зеркала=) На что-нибудь, типа мегааплоад, ипака, аксильфайлз итп


Top
 Profile  
 
 
PostPosted: 28 Feb 2009 
Хиппей (support team)
User avatar
Joined: 30 Jul 2007
Posts: 112789
Lоcаtion: Киев (Kyiv, UA)
Age: 45
Name: Andrey
Ок... Скоро.


Top
 Profile E-mail  
 
 
PostPosted: 17 Sep 2009 
Генеральный thrasher
User avatar
Joined: 03 Oct 2008
Posts: 3708
Lоcаtion: Ханты-Мансийский АО
Age: 44
Name: Сергей
Обложки может кто-нибудь отдельно залить?А то качал альбом в другом месте без облог...


Top
 Profile  
 
 
PostPosted: 18 Sep 2009 
А может смените мне статус?..
User avatar
Joined: 17 Jan 2008
Posts: 881
Lоcаtion: Пенза
Age: 41
Name: Денис
Сканы с диска Романа..

http://rapidshare.com/files/281620927/__scans.rar


Top
 Profile  
 
 
PostPosted: 19 Sep 2009 
Генеральный thrasher
User avatar
Joined: 03 Oct 2008
Posts: 3708
Lоcаtion: Ханты-Мансийский АО
Age: 44
Name: Сергей
klod77 wrote:
Сканы с диска Романа..

http://rapidshare.com/files/281620927/__scans.rar


Спасибо! :true:


Top
 Profile  
 
 
PostPosted: 19 Mar 2010 
Thrasher
User avatar
Joined: 07 Oct 2007
Posts: 2760
Lоcаtion: Russia, Moscow
Age: 35
Name: Drunk & Evil
Спасибо! :true:

_________________
ВОДКА, БАБЫ И БЛЮЗ / 40° till death... :bodun:
One time we saw some hookers, but when we got closer, we realised it was Mötley Crüe. ©


Top
 Profile  
 
 
PostPosted: 25 Nov 2011 
Персональный статус
Joined: 19 Jul 2010
Posts: 282
Lоcаtion: Москва
Name: Вадим
Перезалейте, пожалуйста, на мегу или ипапку.


Top
 Profile E-mail  
 
 
PostPosted: 27 Nov 2011 
Хиппей (support team)
User avatar
Joined: 30 Jul 2007
Posts: 112789
Lоcаtion: Киев (Kyiv, UA)
Age: 45
Name: Andrey
Ой. Аж 4 варианта этого альбома на винте у себя нашёл :oops:
Завтра ливану аповский.

_________________


Top
 Profile E-mail  
 
 
PostPosted: 27 Nov 2011 
Хиппей (support team)
User avatar
Joined: 30 Jul 2007
Posts: 112789
Lоcаtion: Киев (Kyiv, UA)
Age: 45
Name: Andrey
Ой-2. Пардон, а этого как раз сейчас и не вижу... :fingal:

_________________


Top
 Profile E-mail  
 
 
PostPosted: 27 Nov 2011 
Персональный статус
User avatar
Joined: 29 Jan 2009
Posts: 265
Lоcаtion: Таллин, Эстония.
Age: 32
Name: Роман Юрич
Могу и сам перелить. Только уже не АПЕ, а в ВАВПаке.

_________________
Death The Ultimate Reality
Death The Ultimate Reason To Live


Top
 Profile  
 
 
PostPosted: 27 Nov 2011 
Персональный статус
User avatar
Joined: 29 Jan 2009
Posts: 265
Lоcаtion: Таллин, Эстония.
Age: 32
Name: Роман Юрич
Перериповал, перелил, переформил. Осталось ещё пару зеркал сделать для полного счастья.

_________________
Death The Ultimate Reality
Death The Ultimate Reason To Live


Top
 Profile  
 
 
PostPosted: 27 Nov 2011 
Хиппей (support team)
User avatar
Joined: 30 Jul 2007
Posts: 112789
Lоcаtion: Киев (Kyiv, UA)
Age: 45
Name: Andrey
Рома, спасибо :thanx: , щас отзекалю :true:

_________________


Top
 Profile E-mail  
 
 
PostPosted: 27 Nov 2011 
Персональный статус
Joined: 19 Jul 2010
Posts: 282
Lоcаtion: Москва
Name: Вадим
Scatterbrain wrote:
Ой. Аж 4 варианта этого альбома на винте у себя нашёл :oops:
Завтра ливану аповский.

Ой! Четыре варианта одного и того же релиза??? Зачем столько? :-))

MetalMilitia wrote:
Перериповал, перелил, переформил.

Спасибо огромное!


Top
 Profile E-mail  
 
Display posts from previous:  Sort by  
Post new topic Reply to topic  [ 37 posts ]  Go to page 1, 2  Next

All times are UTC + 3 hours


Who is online

Users browsing this forum: No registered users and 2 guests


You cannot post new topics in this forum
You cannot reply to topics in this forum
You cannot edit your posts in this forum
You cannot delete your posts in this forum
You cannot post attachments in this forum

Search for:
Яндекс.Метрика
Powered by phpBB © 2000, 2002, 2005, 2007 phpBB Group