\m/ 80's metal \m/

Информационно-аналитический форум "80 см пыли" (In Search We Trust) "У нас никто никуда не спешит"
Me For You - http://me-4u.com
It is currently 25 May 2019

All times are UTC + 3 hours

Spoiler
Chat - temporary registration for foreign users (please leave your application here)







Post new topic Reply to topic  [ 1 post ] 
Author Message
 
PostPosted: 10 Apr 2019 
Работнечег
User avatar
Joined: 28 Aug 2007
Posts: 5838
Lоcаtion: г. Москва
Age: 30
Name: Дима
Image

Label: Net
Style: Thrash Metal, Crossover
Country: Germany
Format: Flac + Log + Cue + Covers

Line-Up:
Thomas Siegl - Bass (ex-Rattlehead)
Peter Zupancic - Drums (ex-Rattlehead)
Rainer Ressemann - Guitars (ex-Rattlehead)
Dietmar Felten - Vocals

Tracklist:
1. Burning Visions 03:07
2. When the Rain Comes 03:09
3. Am I Sick? 03:32
4. The Exhilaration of a Dying Day 04:55
5. Hey Will ! 01:50
6. The Mirth in a Dead Man's Yell 03:38
7. My Everlasting Wish 03:17
8. Chains in Nowhere 04:35
9. Poem of a Hated Son 03:32
10. Baby Farmer 03:19
11. Flowers in Chill 03:01
12. Screaming Days 03:33
13. The Roam 03:46
14. Goodman Death 04:08

LOG
Exact Audio Copy V0.99 prebeta 5 from 4. May 2009

EAC extraction logfile from 7. January 2019, 19:27

Delicate News / The Mirth In A Dead Man's Yell

Used drive : PIONEER DVD-RW DVR-221 Adapter: 2 ID: 1

Read mode : Secure
Utilize accurate stream : Yes
Defeat audio cache : Yes
Make use of C2 pointers : No

Read offset correction : 6
Overread into Lead-In and Lead-Out : No
Fill up missing offset samples with silence : Yes
Delete leading and trailing silent blocks : No
Null samples used in CRC calculations : Yes
Used interface : Native Win32 interface for Win NT & 2000

Used output format : User Defined Encoder
Selected bitrate : 32 kBit/s
Quality : High
Add ID3 tag : No
Command line compressor : C:\Program Files\Exact Audio Copy\Flac\flac.exe
Additional command line options : -6 -V %s


TOC of the extracted CD

Track | Start | Length | Start sector | End sector
---------------------------------------------------------
1 | 0:00.00 | 3:07.27 | 0 | 14051
2 | 3:07.27 | 3:09.58 | 14052 | 28284
3 | 6:17.10 | 3:32.05 | 28285 | 44189
4 | 9:49.15 | 4:55.50 | 44190 | 66364
5 | 14:44.65 | 1:50.70 | 66365 | 74684
6 | 16:35.60 | 3:38.02 | 74685 | 91036
7 | 20:13.62 | 3:17.38 | 91037 | 105849
8 | 23:31.25 | 4:35.62 | 105850 | 126536
9 | 28:07.12 | 3:32.60 | 126537 | 142496
10 | 31:39.72 | 3:19.18 | 142497 | 157439
11 | 34:59.15 | 3:01.00 | 157440 | 171014
12 | 38:00.15 | 3:33.27 | 171015 | 187016
13 | 41:33.42 | 3:46.18 | 187017 | 203984
14 | 45:19.60 | 4:08.07 | 203985 | 222591


Range status and errors

Selected range

Filename D:\Музыка\Lossless\Delicate News - The Mirth In A Dead Man's Yell (1992)\Delicate News - The Mirth In A Dead Man's Yell.wav

Peak level 92.3 %
Range quality 100.0 %
Copy CRC B9BB32DC
Copy OK

No errors occurred


AccurateRip summary

Track 1 not present in database
Track 2 not present in database
Track 3 not present in database
Track 4 not present in database
Track 5 not present in database
Track 6 not present in database
Track 7 not present in database
Track 8 not present in database
Track 9 not present in database
Track 10 not present in database
Track 11 not present in database
Track 12 not present in database
Track 13 not present in database
Track 14 not present in database

None of the tracks are present in the AccurateRip database

End of status report

CUE
REM GENRE "Thrash Metal"
REM DATE 1992
REM DISCID CC0B970E
REM COMMENT "ExactAudioCopy v0.99pb5"
PERFORMER "Delicate News"
TITLE "The Mirth In A Dead Man's Yell"
FILE "Delicate News - The Mirth In A Dead Man's Yell.flac" WAVE
TRACK 01 AUDIO
TITLE "Burning Visions"
PERFORMER "Delicate News"
INDEX 01 00:00:00
TRACK 02 AUDIO
TITLE "When The Rain Comes"
PERFORMER "Delicate News"
INDEX 00 03:04:67
INDEX 01 03:07:27
TRACK 03 AUDIO
TITLE "Am I Sick?"
PERFORMER "Delicate News"
INDEX 00 06:14:50
INDEX 01 06:17:10
TRACK 04 AUDIO
TITLE "The Exhilaration Of A Dying Day"
PERFORMER "Delicate News"
INDEX 00 09:46:55
INDEX 01 09:49:15
TRACK 05 AUDIO
TITLE "Hey Will!"
PERFORMER "Delicate News"
INDEX 00 14:42:32
INDEX 01 14:44:65
TRACK 06 AUDIO
TITLE "The Mirth In A Dead Man's Yell"
PERFORMER "Delicate News"
INDEX 00 16:33:25
INDEX 01 16:35:60
TRACK 07 AUDIO
TITLE "My Everlasting Wish"
PERFORMER "Delicate News"
INDEX 00 20:11:27
INDEX 01 20:13:62
TRACK 08 AUDIO
TITLE "Chains In Nowhere"
PERFORMER "Delicate News"
INDEX 00 23:28:65
INDEX 01 23:31:25
TRACK 09 AUDIO
TITLE "Poem Of A Hatred Son"
PERFORMER "Delicate News"
INDEX 00 28:04:52
INDEX 01 28:07:12
TRACK 10 AUDIO
TITLE "Baby Farmer"
PERFORMER "Delicate News"
INDEX 00 31:37:37
INDEX 01 31:39:72
TRACK 11 AUDIO
TITLE "Flowers In Chill"
PERFORMER "Delicate News"
INDEX 00 34:56:52
INDEX 01 34:59:15
TRACK 12 AUDIO
TITLE "Screaming Days"
PERFORMER "Delicate News"
INDEX 00 37:57:55
INDEX 01 38:00:15
TRACK 13 AUDIO
TITLE "The Roam"
PERFORMER "Delicate News"
INDEX 00 41:31:07
INDEX 01 41:33:42
TRACK 14 AUDIO
TITLE "Goodman Death"
PERFORMER "Delicate News"
INDEX 00 45:17:25
INDEX 01 45:19:60


Yadi

Скорее бы отнес релиз к кроссоверу, хотя могу ошибаться, не силен в стилях. Бодренько, не затянуто, но запоминающихся песен маловато, поэтому поставил бы 3+. В свое время купил все 3 альбом группы, планирую добить тему до дискографии, заодно послушать :crazy:


Top
 Profile E-mail  
 
Display posts from previous:  Sort by  
Post new topic Reply to topic  [ 1 post ] 

All times are UTC + 3 hours


Who is online

Users browsing this forum: No registered users and 2 guests


You cannot post new topics in this forum
You cannot reply to topics in this forum
You cannot edit your posts in this forum
You cannot delete your posts in this forum
You cannot post attachments in this forum

Search for:
Яндекс.Метрика
Powered by phpBB © 2000, 2002, 2005, 2007 phpBB Group