\m/ 80's metal \m/

Информационно-аналитический форум "80 см пыли" (In Search We Trust) "У нас никто никуда не спешит"
Me For You - http://me-4u.com
It is currently 27 May 2019

All times are UTC + 3 hours

Spoiler
Chat - temporary registration for foreign users (please leave your application here)







Post new topic Reply to topic  [ 13 posts ] 
Author Message
 
PostPosted: 05 Jul 2018 
5-speed satisfactor
User avatar
Joined: 16 Feb 2009
Posts: 3730
Lоcаtion: New York, USA
Age: 41
Name: Leonid
Рипнул 4 года назад. Сейчас продал. Чтоб восстановить образ, надо склеить все треки в 1. Целостного нет. Нет времени делать.

Image Image Image

Группа: Dead Horse
Год: 1996
Жанр: Southern Thrash Metal/Crossover/Country
Страна: США
Штат: Техас
Город: Хьюстон
Альбом: Boil(ing)

Состав:
Greg Martin - Vocals (lead) (1,2,5,6), Guitars
Ronnie Guyote - Drums, Vocals (backing)
Allen (Alpo) Price - Bass, Vocals (backing), Vocals (lead) (4)
Scott Sevall - Vocals (lead) (3), Guitars

Список песен:
1. One Nation 02:32
2. What a Beautiful Day 03:18
3. Reach Around 03:04
4. My Apology 03:13
5. Eaten by the Grey 03:09
6. My Dog the Prophet 01:59
7. Someone 02:15

Ссылка на группу:
http://www.metal-archives.com/bands/Dead_Horse/6056

Ссылка на альбом:
https://www.metal-archives.com/albums/D ... g%29/16473

У вас 2 недели:

https://we.tl/venSTWgYVd

Image

Image

Image

log
Exact Audio Copy V0.99 prebeta 5 from 4. May 2009

EAC extraction logfile from 27. September 2010, 19:31

Dead Horse / Boil (ing)

Used drive : PLEXTOR DVDR PX-760A Adapter: 1 ID: 0

Read mode : Secure
Utilize accurate stream : Yes
Defeat audio cache : Yes
Make use of C2 pointers : Yes

Read offset correction : 30
Overread into Lead-In and Lead-Out : Yes
Fill up missing offset samples with silence : Yes
Delete leading and trailing silent blocks : No
Null samples used in CRC calculations : Yes
Used interface : Installed external ASPI interface

Used output format : Internal WAV Routines
Sample format : 44.100 Hz; 16 Bit; Stereo


TOC of the extracted CD

Track | Start | Length | Start sector | End sector
---------------------------------------------------------
1 | 0:00.00 | 2:32.47 | 0 | 11446
2 | 2:32.47 | 3:17.38 | 11447 | 26259
3 | 5:50.10 | 3:04.52 | 26260 | 40111
4 | 8:54.62 | 3:12.18 | 40112 | 54529
5 | 12:07.05 | 3:09.40 | 54530 | 68744
6 | 15:16.45 | 1:58.57 | 68745 | 77651
7 | 17:15.27 | 2:14.53 | 77652 | 87754


Range status and errors

Selected range

Filename N:\ToFLAC\Dead Horse\Boil (ing)\Dead Horse - Boil (ing).wav

Peak level 100.0 %
Range quality 99.9 %
Copy CRC 234B1B51
Copy OK

No errors occurred

End of status report

cue
REM GENRE "Thrash Metal"
REM DATE 1996
REM DISCID 53049207
REM COMMENT "ExactAudioCopy v0.99pb5"
CATALOG 0000000000000
PERFORMER "Dead Horse"
TITLE "Boil (ing)"
FILE "Dead Horse - Boil (ing).wav" WAVE
TRACK 01 AUDIO
TITLE "One Nation"
PERFORMER "Dead Horse"
INDEX 01 00:00:00
TRACK 02 AUDIO
TITLE "What A Beautiful Day"
PERFORMER "Dead Horse"
INDEX 01 02:32:47
TRACK 03 AUDIO
TITLE "Reach Around"
PERFORMER "Dead Horse"
INDEX 01 05:50:10
TRACK 04 AUDIO
TITLE "My Apology"
PERFORMER "Dead Horse"
INDEX 01 08:54:62
TRACK 05 AUDIO
TITLE "Eaten By The Grey"
PERFORMER "Dead Horse"
INDEX 01 12:07:05
TRACK 06 AUDIO
TITLE "My Dog The Prophet"
PERFORMER "Dead Horse"
INDEX 00 15:15:02
INDEX 01 15:16:45
TRACK 07 AUDIO
TITLE "Someone"
PERFORMER "Dead Horse"
INDEX 00 17:03:67
INDEX 01 17:15:27

_________________
Death rules! Metal to all who oppose!


Top
 Profile  
 
 
PostPosted: 05 Jul 2018 
Прокъмитолист
User avatar
Joined: 12 Aug 2007
Posts: 6553
Lоcаtion: Санктъ-Петербуркъ
Age: 51
Name: Олекъ
:thanx:

_________________
прокъметол - это музыко, от которово есть прок (ы)


Top
 Profile  
 
 
PostPosted: 12 Jul 2018 
Хиппей (support team)
User avatar
Joined: 30 Jul 2007
Posts: 112855
Lоcаtion: Киев (Kyiv, UA)
Age: 45
Name: Andrey
:thanx:

mirror: Uloz l Drop l Narod l M-Cloud



Какая-то несобранная грувастая хрень оказалась :yyy:

4/10

_________________


Top
 Profile E-mail  
 
 
PostPosted: 14 Jul 2018 
5-speed satisfactor
User avatar
Joined: 16 Feb 2009
Posts: 3730
Lоcаtion: New York, USA
Age: 41
Name: Leonid
А есть у кого последний их альбомчег?

_________________
Death rules! Metal to all who oppose!


Top
 Profile  
 
 
PostPosted: 14 Jul 2018 
Partisanen - nicht kapitulieren!!
User avatar
Joined: 25 Dec 2011
Posts: 6993
Lоcаtion: партизанские леса
Age: 46
Name: Владимир
флак с дизера устроит?

_________________
One more beer and Heavy Metal and I'm just fine!
старовер, куле... слово "блин" - до сих пор через Ъ говорю


Top
 Profile E-mail  
 
 
PostPosted: 14 Jul 2018 
Partisanen - nicht kapitulieren!!
User avatar
Joined: 25 Dec 2011
Posts: 6993
Lоcаtion: партизанские леса
Age: 46
Name: Владимир
есичо, то вотъ - https://cloud.mail.ru/public/Ht8y/Eg7uCRZYR
Code:
AUDIOCHECKER v2.0 beta (build 457) - by Dester - opdester@freemail.hu
~~~~~~~~~~~~~~~~~~~~~~~~~~~~~~~~~~
-=== DO NOT EDIT THIS FILE! ===-

Path: ...\The Beast That Comes (Album)

01 -=- 01 How We Rot.flac -=- CDDA (99%)
02 -=- 02 So I Die.flac -=- CDDA (99%)
03 -=- 03 Gifts of Eden.flac -=- CDDA (100%)
04 -=- 04 The Breaking of Spirit.flac -=- CDDA (100%)
05 -=- 05 The Beast That Comes.flac -=- CDDA (100%)
06 -=- 06 Kill the Infidel.flac -=- CDDA (100%)
07 -=- 07 Beat on the Brat.flac -=- CDDA (100%)
08 -=- 08 Horsecore.flac -=- CDDA (100%)
09 -=- 09 A Loaded Gun (Bass Heavy Remix).flac -=- CDDA (100%)
10 -=- 10 Let Me Drink (Bass Heavy Remix).flac -=- CDDA (100%)
11 -=- 11 A Death of Nothing (Bass Heavy Remix).flac -=- CDDA (100%)
12 -=- 12 Train Ride (Bass Heavy Remix).flac -=- CDDA (100%)

Summary 99,83% CDDA

178333156

_________________
One more beer and Heavy Metal and I'm just fine!
старовер, куле... слово "блин" - до сих пор через Ъ говорю


Top
 Profile E-mail  
 
 
PostPosted: 14 Jul 2018 
Работнечег
User avatar
Joined: 28 Aug 2007
Posts: 5838
Lоcаtion: г. Москва
Age: 30
Name: Дима
Помню эту ипишку, скачал давно еще, из суслика и тогда как-то не особо зашло. Попробую освежить воспоминания, спасибо Лёня! :thanx:


Top
 Profile E-mail  
 
 
PostPosted: 16 Jul 2018 
Хиппей (support team)
User avatar
Joined: 30 Jul 2007
Posts: 112855
Lоcаtion: Киев (Kyiv, UA)
Age: 45
Name: Andrey
32warlord1 wrote:
есичо, то вотъ - https://cloud.mail.ru/public/Ht8y/Eg7uCRZYR

:thanx:

Dead Horse - 2017 - The Beast That Comes

Image

mirror: Uloz l Drop l Narod l M-Cloud

_________________


Top
 Profile E-mail  
 
 
PostPosted: 16 Jul 2018 
5-speed satisfactor
User avatar
Joined: 16 Feb 2009
Posts: 3730
Lоcаtion: New York, USA
Age: 41
Name: Leonid
Спасибо, качаю

_________________
Death rules! Metal to all who oppose!


Top
 Profile  
 
 
PostPosted: 18 Jul 2018 
Хиппей (support team)
User avatar
Joined: 30 Jul 2007
Posts: 112855
Lоcаtion: Киев (Kyiv, UA)
Age: 45
Name: Andrey
Уфф, пока этот миник, кхм.. из 12 композиций понравился мне больше всего из творчества данного коллектива :lob: :lob: :lob:

7+/10

_________________


Top
 Profile E-mail  
 
 
PostPosted: 18 Jul 2018 
Хиппей (support team)
User avatar
Joined: 30 Jul 2007
Posts: 112855
Lоcаtion: Киев (Kyiv, UA)
Age: 45
Name: Andrey
Scatterbrain wrote:
Dead Horse - 2017 - The Beast That Comes

1. Это оказался не миник, а полноформатный альбом прошлого года.
2. Оценку релизу оставлю прежней после 5-7 прослушиваний, но заберу его в топы личные :lob: :lob: :lob:
3. Альбом ну просто обязан зацепить за живые места и уши Серёгу splatty :kro:
Ибо Металликой здесь пахнет изрядно хоть и очень поверхностно, но..

В общем, слушайте альбом и сами всё поймёте :meloman:

_________________


Top
 Profile E-mail  
 
 
PostPosted: 18 Jul 2018 
5-speed satisfactor
User avatar
Joined: 16 Feb 2009
Posts: 3730
Lоcаtion: New York, USA
Age: 41
Name: Leonid
32warlord1 wrote:
есичо, то вотъ - https://cloud.mail.ru/public/Ht8y/Eg7uCRZYR

:thanx:

Dead Horse - 2017 - The Beast That Comes

Image

mirror: Uloz l Drop l Narod l M-Cloud



Ты перезалил или это другой рип?

_________________
Death rules! Metal to all who oppose!


Top
 Profile  
 
 
PostPosted: 19 Jul 2018 
Хиппей (support team)
User avatar
Joined: 30 Jul 2007
Posts: 112855
Lоcаtion: Киев (Kyiv, UA)
Age: 45
Name: Andrey
Перезалил, я ж указываю, помечая словом "mirror" и ссылкой на оригинальную ссылку :pardon:

_________________


Top
 Profile E-mail  
 
Display posts from previous:  Sort by  
Post new topic Reply to topic  [ 13 posts ] 

All times are UTC + 3 hours


Who is online

Users browsing this forum: No registered users and 1 guest


You cannot post new topics in this forum
You cannot reply to topics in this forum
You cannot edit your posts in this forum
You cannot delete your posts in this forum
You cannot post attachments in this forum

Search for:
Яндекс.Метрика
Powered by phpBB © 2000, 2002, 2005, 2007 phpBB Group