\m/ 80's metal \m/

Информационно-аналитический форум "80 см пыли" (In Search We Trust) "У нас никто никуда не спешит"
Me For You - http://me-4u.com
It is currently 27 May 2019

All times are UTC + 3 hours

Spoiler
Chat - temporary registration for foreign users (please leave your application here)







Post new topic Reply to topic  [ 20 posts ] 
Author Message
 
PostPosted: 06 Jan 2018 
Анатолий
User avatar
Joined: 18 Oct 2008
Posts: 3456
Lоcаtion: Армавир
Age: 41
Name: Анатолий
Da Vinci - "Da Vinci" - 1987

Image

Track listing

1 Lookin' for Love 3:33
2 Dreamin' 4:27
3 Tarquinia 5:35
4 Corina 3:38
5 Look at Me Now - Intro 0:29
6 Look at Me Now 4:08
7 Forever in My Heart 4:00
8 She's a He 4:00
9 Young Desperado 5:12
10 Light My Fire - Live Studio Version 3:40
Bonus Track
11 Ain't No Goodbyes 4:42

Total length: 43:24

CD MTM / 0681-165

Da Vinci - "Back in Business" - 1993

Image

Track listing

1 Touchdown 4:16
2 Call Me a Liar 4:58
3 Young Hearts 3:39
4 9 and 10 3:11
5 Turn Down the Lights 5:02
6 Millions Like Us 3:32
7 Pink Champagne 3:19
8 Circus Maximus 4:33
9 Hold Back the Tears 5:07
10 Last Time 4:41
11 Blame It on the Radio [bonus track] 4:13

Total length: 46:3

CD MTM / 0681-170

Но если у кого вдруг есть первопрессы, то их было бы вполне достаточно. Ну или другие CD издания данных альбомов.

Заранее спасибо за помощь в поиске! :thanx:


Last edited by Scatterbrain on 10 Jan 2018, edited 2 times in total.
И здесь чуть подправил название топика


Top
 Profile E-mail  
 
 
PostPosted: 06 Jan 2018 
Partisanen - nicht kapitulieren!!
User avatar
Joined: 25 Dec 2011
Posts: 6993
Lоcаtion: партизанские леса
Age: 46
Name: Владимир
оба есть на ваффлях, но чота сидов не видать... :scratch:
попробую скачать
Image

Image

Image

_________________
One more beer and Heavy Metal and I'm just fine!
старовер, куле... слово "блин" - до сих пор через Ъ говорю


Top
 Profile E-mail  
 
 
PostPosted: 06 Jan 2018 
Анатолий
User avatar
Joined: 18 Oct 2008
Posts: 3456
Lоcаtion: Армавир
Age: 41
Name: Анатолий
Был бы благодарен! :true:


Top
 Profile E-mail  
 
 
PostPosted: 06 Jan 2018 
Хиппей (support team)
User avatar
Joined: 30 Jul 2007
Posts: 112855
Lоcаtion: Киев (Kyiv, UA)
Age: 45
Name: Andrey
Если верить, был здесь :arrow: http://vsetutonline.com/forum/showthread.php?t=75200
С такими типа ссылками :arrov: https://melodicrock.us/09/da-vinci-da-v ... -lossless/
http://80-e.ru/lofiversion/index.php/t9 ... -1000.html

_________________


Top
 Profile E-mail  
 
 
PostPosted: 08 Jan 2018 
Partisanen - nicht kapitulieren!!
User avatar
Joined: 25 Dec 2011
Posts: 6993
Lоcаtion: партизанские леса
Age: 46
Name: Владимир
снимайте рекса...
Da Vinci 1987 - Da Vinci [2006 MTM Music Remastered CD] [FLAC/tracks/cue/log]
Image
01. Lookin' For Love
02. Dreamin'
03. Tarquinia
04. Corina
05. Look At Me Now (Intro)
06. Look At Me Now
07. Forever In My Heart
08. She's A He
09. Young Desperado
10. Light My Fire
11. Ain't No Goodbyes (Bonus Track)

EAC log | +
Code:
Exact Audio Copy V1.0 beta 3 from 29. August 2011

EAC extraction logfile from 12. September 2012, 18:38

Da Vinci / Da Vinci

Used drive  : TSSTcorpCDDVDW SH-S223Q   Adapter: 6  ID: 0

Read mode               : Secure
Utilize accurate stream : Yes
Defeat audio cache      : Yes
Make use of C2 pointers : No

Read offset correction                      : 6
Overread into Lead-In and Lead-Out          : No
Fill up missing offset samples with silence : Yes
Delete leading and trailing silent blocks   : No
Null samples used in CRC calculations       : Yes
Used interface                              : Native Win32 interface for Win NT & 2000
Gap handling                                : Appended to previous track

Used output format              : User Defined Encoder
Selected bitrate                : 128 kBit/s
Quality                         : High
Add ID3 tag                     : No
Command line compressor         : C:\Program Files (x86)\Exact Audio Copy\Flac\flac.exe
Additional command line options : --best --picture="C:\FLAC\folder.jpg" -P 4096 -V -T "ARTIST=%artist%" -T "TITLE=%title%" -T "ALBUM=%albumtitle%" -T "TRACKNUMBER=%tracknr%" %source% -o %dest%


TOC of the extracted CD

     Track |   Start  |  Length  | Start sector | End sector
    ---------------------------------------------------------
        1  |  0:00.00 |  3:37.52 |         0    |    16326   
        2  |  3:37.52 |  4:29.62 |     16327    |    36563   
        3  |  8:07.39 |  5:34.37 |     36564    |    61650   
        4  | 13:42.01 |  3:46.63 |     61651    |    78663   
        5  | 17:28.64 |  0:29.58 |     78664    |    80896   
        6  | 17:58.47 |  3:44.11 |     80897    |    97707   
        7  | 21:42.58 |  4:06.05 |     97708    |   116162   
        8  | 25:48.63 |  4:06.18 |    116163    |   134630   
        9  | 29:55.06 |  5:19.45 |    134631    |   158600   
       10  | 35:14.51 |  3:43.46 |    158601    |   175371   
       11  | 38:58.22 |  4:42.59 |    175372    |   196580   


Track  1

     Filename C:\FLAC\Da Vinci\Da Vinci\01 - Lookin' For Love.wav

     Pre-gap length  0:00:02.00

     Peak level 100.0 %
     Extraction speed 2.1 X
     Track quality 100.0 %
     Test CRC 6D0AE05F
     Copy CRC 6D0AE05F
     Cannot be verified as accurate (confidence 2)  [4BB1ABD4], AccurateRip returned [115ABCC5]  (AR v2)
     Copy OK

Track  2

     Filename C:\FLAC\Da Vinci\Da Vinci\02 - Dreamin'.wav

     Peak level 100.0 %
     Extraction speed 2.1 X
     Track quality 100.0 %
     Test CRC 203701E8
     Copy CRC 203701E8
     Cannot be verified as accurate (confidence 2)  [0874C2DD], AccurateRip returned [3B0C2505]  (AR v2)
     Copy OK

Track  3

     Filename C:\FLAC\Da Vinci\Da Vinci\03 - Tarquinia.wav

     Peak level 100.0 %
     Extraction speed 2.2 X
     Track quality 100.0 %
     Test CRC 444F6CAA
     Copy CRC 444F6CAA
     Cannot be verified as accurate (confidence 2)  [FDFE22D1], AccurateRip returned [68B98F74]  (AR v2)
     Copy OK

Track  4

     Filename C:\FLAC\Da Vinci\Da Vinci\04 - Corina.wav

     Peak level 100.0 %
     Extraction speed 2.1 X
     Track quality 100.0 %
     Test CRC CCFECDA3
     Copy CRC CCFECDA3
     Cannot be verified as accurate (confidence 2)  [6EAC666F], AccurateRip returned [DF7F8F92]  (AR v2)
     Copy OK

Track  5

     Filename C:\FLAC\Da Vinci\Da Vinci\05 - Look At Me Now (Intro).wav

     Peak level 39.0 %
     Extraction speed 1.0 X
     Track quality 100.0 %
     Test CRC D5480462
     Copy CRC D5480462
     Cannot be verified as accurate (confidence 2)  [67E63E4E], AccurateRip returned [F8A765B5]  (AR v2)
     Copy OK

Track  6

     Filename C:\FLAC\Da Vinci\Da Vinci\06 - Look At Me Now.wav

     Peak level 100.0 %
     Extraction speed 2.1 X
     Track quality 100.0 %
     Test CRC EB66C6B1
     Copy CRC EB66C6B1
     Cannot be verified as accurate (confidence 2)  [446CA96C], AccurateRip returned [7954B6A8]  (AR v2)
     Copy OK

Track  7

     Filename C:\FLAC\Da Vinci\Da Vinci\07 - Forever In My Heart.wav

     Peak level 100.0 %
     Extraction speed 2.1 X
     Track quality 100.0 %
     Test CRC 3C8AD653
     Copy CRC 3C8AD653
     Cannot be verified as accurate (confidence 2)  [D31C397B], AccurateRip returned [E1A15067]  (AR v2)
     Copy OK

Track  8

     Filename C:\FLAC\Da Vinci\Da Vinci\08 - She's A He.wav

     Peak level 100.0 %
     Extraction speed 2.1 X
     Track quality 100.0 %
     Test CRC 39F6CF79
     Copy CRC 39F6CF79
     Cannot be verified as accurate (confidence 2)  [62BB48C4], AccurateRip returned [B258E6D4]  (AR v2)
     Copy OK

Track  9

     Filename C:\FLAC\Da Vinci\Da Vinci\09 - Young Desperado.wav

     Peak level 100.0 %
     Extraction speed 2.2 X
     Track quality 100.0 %
     Test CRC 025F0219
     Copy CRC 025F0219
     Cannot be verified as accurate (confidence 2)  [A4E4F533], AccurateRip returned [8CE7CC0A]  (AR v2)
     Copy OK

Track 10

     Filename C:\FLAC\Da Vinci\Da Vinci\10 - Light My Fire.wav

     Peak level 100.0 %
     Extraction speed 2.1 X
     Track quality 100.0 %
     Test CRC B5C72067
     Copy CRC B5C72067
     Cannot be verified as accurate (confidence 2)  [6DD8B9F6], AccurateRip returned [C7CB170C]  (AR v2)
     Copy OK

Track 11

     Filename C:\FLAC\Da Vinci\Da Vinci\11 - Ain't No Goodbyes.wav

     Peak level 100.0 %
     Extraction speed 2.1 X
     Track quality 100.0 %
     Test CRC BD404840
     Copy CRC BD404840
     Cannot be verified as accurate (confidence 2)  [3A28E79A], AccurateRip returned [6D1E33EF]  (AR v2)
     Copy OK


No tracks could be verified as accurate
You may have a different pressing from the one(s) in the database

No errors occurred

End of status report

==== Log checksum A05A95BC32EDF7A60DE7DA51E7A08E70273921F836F6D3DE8CD930ED9396F390 ====



Image

_________________
One more beer and Heavy Metal and I'm just fine!
старовер, куле... слово "блин" - до сих пор через Ъ говорю


Top
 Profile E-mail  
 
 
PostPosted: 08 Jan 2018 
Partisanen - nicht kapitulieren!!
User avatar
Joined: 25 Dec 2011
Posts: 6993
Lоcаtion: партизанские леса
Age: 46
Name: Владимир
Da Vinci 1989 - Back In Bu$iness [2006 MTM Music Remastered CD] [FLAC/tracks/cue/log]
Image
01. Touchdown
02. Call Me A Liar
03. Young Hearts
04. 9 And 10
05. Turn Down The Lights
06. Millions Like Us
07. Pink Champagne
08. Circus Maximus
09. Hold Back The Tears
10. Last Time
11. Blame It On The Radio

EAC log | +
Code:
Exact Audio Copy V1.0 beta 3 from 29. August 2011

EAC extraction logfile from 24. September 2012, 15:49

Da Vinci / Back In Bu$iness

Used drive  : TSSTcorpCDDVDW SH-S223Q   Adapter: 6  ID: 0

Read mode               : Secure
Utilize accurate stream : Yes
Defeat audio cache      : Yes
Make use of C2 pointers : No

Read offset correction                      : 6
Overread into Lead-In and Lead-Out          : No
Fill up missing offset samples with silence : Yes
Delete leading and trailing silent blocks   : No
Null samples used in CRC calculations       : Yes
Used interface                              : Native Win32 interface for Win NT & 2000
Gap handling                                : Appended to previous track

Used output format              : User Defined Encoder
Selected bitrate                : 128 kBit/s
Quality                         : High
Add ID3 tag                     : No
Command line compressor         : C:\Program Files (x86)\Exact Audio Copy\Flac\flac.exe
Additional command line options : --best --picture="C:\FLAC\folder.jpg" -P 4096 -V -T "ARTIST=%artist%" -T "TITLE=%title%" -T "ALBUM=%albumtitle%" -T "TRACKNUMBER=%tracknr%" %source% -o %dest%


TOC of the extracted CD

    Track |   Start  |  Length  | Start sector | End sector
   ---------------------------------------------------------
       1  |  0:00.00 |  4:17.45 |         0    |    19319   
       2  |  4:17.45 |  5:00.01 |     19320    |    41820   
       3  |  9:17.46 |  3:40.00 |     41821    |    58320   
       4  | 12:57.46 |  3:12.34 |     58321    |    72754   
       5  | 16:10.05 |  5:03.39 |     72755    |    95518   
       6  | 21:13.44 |  3:33.19 |     95519    |   111512   
       7  | 24:46.63 |  3:19.55 |    111513    |   126492   
       8  | 28:06.43 |  4:34.41 |    126493    |   147083   
       9  | 32:41.09 |  5:09.05 |    147084    |   170263   
      10  | 37:50.14 |  4:43.64 |    170264    |   191552   
      11  | 42:34.03 |  4:13.41 |    191553    |   210568   


Track  1

    Filename C:\FLAC\Da Vinci\Back In Bu$iness\01 - Touchdown.wav

    Pre-gap length  0:00:02.00

    Peak level 100.0 %
    Extraction speed 3.9 X
    Track quality 99.9 %
    Test CRC 5294D1DC
    Copy CRC 5294D1DC
    Cannot be verified as accurate (confidence 3)  [A8A3A13A], AccurateRip returned [EF0A9220]  (AR v2)
    Copy OK

Track  2

    Filename C:\FLAC\Da Vinci\Back In Bu$iness\02 - Call Me A Liar.wav

    Peak level 100.0 %
    Extraction speed 5.3 X
    Track quality 100.0 %
    Test CRC E3A37CDD
    Copy CRC E3A37CDD
    Cannot be verified as accurate (confidence 3)  [1DDB2128], AccurateRip returned [2B9B6BF7]  (AR v2)
    Copy OK

Track  3

    Filename C:\FLAC\Da Vinci\Back In Bu$iness\03 - Young Hearts.wav

    Peak level 100.0 %
    Extraction speed 5.5 X
    Track quality 100.0 %
    Test CRC 7459F208
    Copy CRC 7459F208
    Cannot be verified as accurate (confidence 3)  [F400D156], AccurateRip returned [5E68B254]  (AR v2)
    Copy OK

Track  4

    Filename C:\FLAC\Da Vinci\Back In Bu$iness\04 - 9 And 10.wav

    Peak level 100.0 %
    Extraction speed 5.8 X
    Track quality 100.0 %
    Test CRC 7224A3CE
    Copy CRC 7224A3CE
    Cannot be verified as accurate (confidence 3)  [EB3FB0AA], AccurateRip returned [03AC660E]  (AR v2)
    Copy OK

Track  5

    Filename C:\FLAC\Da Vinci\Back In Bu$iness\05 - Turn Down The Lights.wav

    Peak level 100.0 %
    Extraction speed 6.5 X
    Track quality 100.0 %
    Test CRC D1C75BFC
    Copy CRC D1C75BFC
    Cannot be verified as accurate (confidence 3)  [36390D6F], AccurateRip returned [FA68F4C6]  (AR v2)
    Copy OK

Track  6

    Filename C:\FLAC\Da Vinci\Back In Bu$iness\06 - Millions Like Us.wav

    Peak level 100.0 %
    Extraction speed 6.6 X
    Track quality 100.0 %
    Test CRC 173E9EAA
    Copy CRC 173E9EAA
    Cannot be verified as accurate (confidence 3)  [243E37C2], AccurateRip returned [291435BA]  (AR v2)
    Copy OK

Track  7

    Filename C:\FLAC\Da Vinci\Back In Bu$iness\07 - Pink Champagne.wav

    Peak level 100.0 %
    Extraction speed 6.7 X
    Track quality 100.0 %
    Test CRC C0FEB600
    Copy CRC C0FEB600
    Cannot be verified as accurate (confidence 3)  [D94D9DE7], AccurateRip returned [A3267C7B]  (AR v2)
    Copy OK

Track  8

    Filename C:\FLAC\Da Vinci\Back In Bu$iness\08 - Circus Maximus.wav

    Peak level 100.0 %
    Extraction speed 6.0 X
    Track quality 99.9 %
    Test CRC 5FD299DE
    Copy CRC 5FD299DE
    Cannot be verified as accurate (confidence 3)  [E4E5C0FE], AccurateRip returned [3FF15B82]  (AR v2)
    Copy OK

Track  9

    Filename C:\FLAC\Da Vinci\Back In Bu$iness\09 - Hold Back The Tears.wav

    Peak level 100.0 %
    Extraction speed 6.5 X
    Track quality 99.9 %
    Test CRC 53400D95
    Copy CRC 53400D95
    Cannot be verified as accurate (confidence 3)  [59467AD6], AccurateRip returned [6C700E8F]  (AR v2)
    Copy OK

Track 10

    Filename C:\FLAC\Da Vinci\Back In Bu$iness\10 - Last Time.wav

    Peak level 99.5 %
    Extraction speed 6.7 X
    Track quality 99.9 %
    Test CRC 6B167157
    Copy CRC 6B167157
    Cannot be verified as accurate (confidence 3)  [A1B79080], AccurateRip returned [089BB19A]  (AR v2)
    Copy OK

Track 11

    Filename C:\FLAC\Da Vinci\Back In Bu$iness\11 - Blame It On The Radio.wav

    Peak level 99.8 %
    Extraction speed 8.2 X
    Track quality 100.0 %
    Test CRC F2AD4397
    Copy CRC F2AD4397
    Cannot be verified as accurate (confidence 3)  [705259AB], AccurateRip returned [AEE9A61E]  (AR v2)
    Copy OK


No tracks could be verified as accurate
You may have a different pressing from the one(s) in the database

No errors occurred

End of status report

==== Log checksum 6D364A43A976EF0980FAAB5602B6185193853AF1A5C7C956892DF2233343F1EE ====



Image

_________________
One more beer and Heavy Metal and I'm just fine!
старовер, куле... слово "блин" - до сих пор через Ъ говорю


Top
 Profile E-mail  
 
 
PostPosted: 08 Jan 2018 
Анатолий
User avatar
Joined: 18 Oct 2008
Posts: 3456
Lоcаtion: Армавир
Age: 41
Name: Анатолий
Спасибо, Владимир!!! :thanx: :true:


Top
 Profile E-mail  
 
 
PostPosted: 08 Jan 2018 
Хиппей (support team)
User avatar
Joined: 30 Jul 2007
Posts: 112855
Lоcаtion: Киев (Kyiv, UA)
Age: 45
Name: Andrey
Володь, спасибки :thanx:

1987 mirror: Depos l Narod l M-Cloud l Drop
1993 mirror: Depos l Narod l M-Cloud l Drop

_________________


Top
 Profile E-mail  
 
 
PostPosted: 08 Jan 2018 
Partisanen - nicht kapitulieren!!
User avatar
Joined: 25 Dec 2011
Posts: 6993
Lоcаtion: партизанские леса
Age: 46
Name: Владимир
спасибы - аплоадеру (Hoodwink), быстро откликнулся на просьбу встать на раздачу :pardon:

_________________
One more beer and Heavy Metal and I'm just fine!
старовер, куле... слово "блин" - до сих пор через Ъ говорю


Top
 Profile E-mail  
 
 
PostPosted: 09 Jan 2018 
Анатолий
User avatar
Joined: 18 Oct 2008
Posts: 3456
Lоcаtion: Армавир
Age: 41
Name: Анатолий
Коллеги, Вы меня простите и не судите строго, но у меня не получается утянуть альбом с облака. Всё время грузится не полноценный архив, который не открывается...


Top
 Profile E-mail  
 
 
PostPosted: 09 Jan 2018 
Partisanen - nicht kapitulieren!!
User avatar
Joined: 25 Dec 2011
Posts: 6993
Lоcаtion: партизанские леса
Age: 46
Name: Владимир
:shok:
ну да ладна, ща...

_________________
One more beer and Heavy Metal and I'm just fine!
старовер, куле... слово "блин" - до сих пор через Ъ говорю


Top
 Profile E-mail  
 
 
PostPosted: 09 Jan 2018 
Partisanen - nicht kapitulieren!!
User avatar
Joined: 25 Dec 2011
Posts: 6993
Lоcаtion: партизанские леса
Age: 46
Name: Владимир
Da Vinci 1989 - Back In Bu$iness ----> https://drop.me/M0xRkZ
Da Vinci 1987 - Da Vinci ----> https://drop.me/Mv7nXA

_________________
One more beer and Heavy Metal and I'm just fine!
старовер, куле... слово "блин" - до сих пор через Ъ говорю


Top
 Profile E-mail  
 
 
PostPosted: 09 Jan 2018 
Partisanen - nicht kapitulieren!!
User avatar
Joined: 25 Dec 2011
Posts: 6993
Lоcаtion: партизанские леса
Age: 46
Name: Владимир
а так-то вапще интерсно - что там может не скачиватсо...

_________________
One more beer and Heavy Metal and I'm just fine!
старовер, куле... слово "блин" - до сих пор через Ъ говорю


Top
 Profile E-mail  
 
 
PostPosted: 10 Jan 2018 
Анатолий
User avatar
Joined: 18 Oct 2008
Posts: 3456
Lоcаtion: Армавир
Age: 41
Name: Анатолий
У меня XP, может по этому что-то идет не так? Архив скачивается подозрителнбстро и как результат может весить 25 метров, а может 60. Самое много скачалось 180 метров. И всё равно архивы не открываются выдавая ошибку...


Top
 Profile E-mail  
 
 
PostPosted: 10 Jan 2018 
Хиппей (support team)
User avatar
Joined: 30 Jul 2007
Posts: 112855
Lоcаtion: Киев (Kyiv, UA)
Age: 45
Name: Andrey
Коллеги, Вы меня простите и не судите строго, но у меня не получается утянуть альбом с облака. Всё время грузится не полноценный архив, который не открывается...

О, боги ада...
Толя, какая у тебя скорость интернета? :cry: http://www.speedtest.net/ru лии так http://www.beta.speedtest.net/ru

_________________


Top
 Profile E-mail  
 
 
PostPosted: 10 Jan 2018 
Хиппей (support team)
User avatar
Joined: 30 Jul 2007
Posts: 112855
Lоcаtion: Киев (Kyiv, UA)
Age: 45
Name: Andrey
32warlord1 wrote:
а так-то вапще интерсно

Ааа, Толя попал всё же на Ютуб :lob: :lob: :lob:

_________________


Top
 Profile E-mail  
 
 
PostPosted: 10 Jan 2018 
Хиппей (support team)
User avatar
Joined: 30 Jul 2007
Posts: 112855
Lоcаtion: Киев (Kyiv, UA)
Age: 45
Name: Andrey
У меня XP, может по этому что-то идет не так? Архив скачивается подозрителнбстро и как результат может весить 25 метров, а может 60. Самое много скачалось 180 метров. И всё равно архивы не открываются выдавая ошибку...

Похоже на вирус DaVinci :(

:arrow: https://www.google.com/search?q=%D0%B2% ... UA758UA758

_________________


Top
 Profile E-mail  
 
 
PostPosted: 10 Jan 2018 
Анатолий
User avatar
Joined: 18 Oct 2008
Posts: 3456
Lоcаtion: Армавир
Age: 41
Name: Анатолий
Злыдень!


Top
 Profile E-mail  
 
 
PostPosted: 10 Jan 2018 
Хиппей (support team)
User avatar
Joined: 30 Jul 2007
Posts: 112855
Lоcаtion: Киев (Kyiv, UA)
Age: 45
Name: Andrey
Privateer wrote:
Da Vinci - "Back in Business" - 1993

Ну шо?
Альбом вареньеобразный и сопленаматывающий :kro:
Melodic Hard Rock юношеский, но никак не подростковый. Но музыка точно не моя - слишком уж много сладостных мелодий и ритмов, шо аж меня, любителя всего сладкого, подташнивает. Хотя хитовенько так и весело местами :kro:

5+/10

_________________


Top
 Profile E-mail  
 
 
PostPosted: 10 Jan 2018 
Хиппей (support team)
User avatar
Joined: 30 Jul 2007
Posts: 112855
Lоcаtion: Киев (Kyiv, UA)
Age: 45
Name: Andrey
Privateer wrote:
Da Vinci - "Da Vinci" - 1987

Чуть больше понравился альбом.
Тута ещё присутствует дух юношеской непосредственности и безбашенности :meloman: И вокалист прикольно поёт-поднывает.

6/10

_________________


Top
 Profile E-mail  
 
Display posts from previous:  Sort by  
Post new topic Reply to topic  [ 20 posts ] 

All times are UTC + 3 hours


Who is online

Users browsing this forum: No registered users and 1 guest


You cannot post new topics in this forum
You cannot reply to topics in this forum
You cannot edit your posts in this forum
You cannot delete your posts in this forum
You cannot post attachments in this forum

Search for:
Яндекс.Метрика
Powered by phpBB © 2000, 2002, 2005, 2007 phpBB Group