\m/ 80's metal \m/

Информационно-аналитический форум "80 см пыли" (In Search We Trust) "У нас никто никуда не спешит"
Me For You - http://me-4u.com
It is currently 25 May 2019

All times are UTC + 3 hours

Spoiler
Chat - temporary registration for foreign users (please leave your application here)







Post new topic Reply to topic  [ 30 posts ]  Go to page Previous  1, 2
Author Message
 
PostPosted: 16 Apr 2016 
Генеральный thrasher
User avatar
Joined: 03 Oct 2008
Posts: 3708
Lоcаtion: Ханты-Мансийский АО
Age: 44
Name: Сергей
Image

Year:1990
Style:Thrash Metal
Country:U.S.A.
Archive:Flac+Cue+Log+Scans
Size:306Mb
Source:my CD
Label:Under One Flag
Catalog ID:CD MFLAG 42

Line-Up:
Ron Rinehart - vocals
Brett Eriksen - guitars
Gene Hoglan - drums
Eric Meyer - guitars
Mike Gonzalez - bass

Tracklist:
01. Leave Scars 09:31
02. The Burning of Sodom 03:33
03. Never to Rise Again 04:09
04. Death Is Certain (Life Is Not) 03:53
05. The Promise of Agony 08:50
06. We Have Arrived 03:57
07. The Death of Innocence 05:37
08. I Don't Care About You (Fear cover) 03:22

"Cue"
REM GENRE "Thrash Metal"
REM DATE 1990
REM DISCID 6D0A0808
REM COMMENT "ExactAudioCopy v0.99pb5"
PERFORMER "Dark Angel"
TITLE "Live Scars"
FILE "Dark Angel - Live Scars.flac" WAVE
TRACK 01 AUDIO
TITLE "Leave Scars"
PERFORMER "Dark Angel"
INDEX 00 00:00:00
INDEX 01 00:00:33
TRACK 02 AUDIO
TITLE "The Burning Of Sodom"
PERFORMER "Dark Angel"
INDEX 01 09:31:15
TRACK 03 AUDIO
TITLE "Never To Rise Again"
PERFORMER "Dark Angel"
INDEX 01 13:03:35
TRACK 04 AUDIO
TITLE "Death Is Certain (Life Is Not)"
PERFORMER "Dark Angel"
INDEX 01 17:12:10
TRACK 05 AUDIO
TITLE "The Promise Of Agony"
PERFORMER "Dark Angel"
INDEX 01 21:04:63
TRACK 06 AUDIO
TITLE "We Have Arrived"
PERFORMER "Dark Angel"
INDEX 01 29:54:13
TRACK 07 AUDIO
TITLE "The Death Of Innocence"
PERFORMER "Dark Angel"
INDEX 01 33:50:50
TRACK 08 AUDIO
TITLE "I Don't Care About You"
PERFORMER "Dark Angel"
INDEX 01 39:26:60

"Log"
Exact Audio Copy V0.99 prebeta 5 from 4. May 2009

Отчёт EAC об извлечении, выполненном 12. июня 2013, 18:39

Dark Angel / Live Scars

Дисковод: MATSHITADVD-RAM UJ8A0AS Adapter: 0 ID: 1

Режим чтения : Достоверность
Использование точного потока : Да
Отключение кэша аудио : Да
Использование указателей C2 : Нет

Коррекция смещения при чтении : 102
Способность читать области Lead-in и Lead-out : Нет
Заполнение пропущенных сэмплов тишиной : Да
Удаление блоков с тишиной в начале и конце : Нет
При вычислениях CRC использовались нулевые сэмплы : Да
Интерфейс : Встроенный Win32-интерфейс для Win NT/2000

Выходной формат : Пользовательский кодировщик
Выбранный битрейт : 1024 kBit/s
Качество : Высокий
Добавление ID3-тэга : Нет
Утилита сжатия : C:\Program Files\Exact Audio Copy\FLAC\FLAC.EXE
Дополнительные параметры : -6 -V -T "ARTIST=%a" -T "TITLE=%t" -T "ALBUM=%g" -T "DATE=%y" -T "TRACKNUMBER=%n" -T "GENRE=%m" -T "COMMENT=%e" %s -o %d


TOC извлечённого CD

Трек | Старт | Длительность | Начальный сектор | Конечный сектор
---------------------------------------------------------------------
1 | 0:00.33 | 9:30.57 | 33 | 42839
2 | 9:31.15 | 3:32.20 | 42840 | 58759
3 | 13:03.35 | 4:08.50 | 58760 | 77409
4 | 17:12.10 | 3:52.53 | 77410 | 94862
5 | 21:04.63 | 8:49.25 | 94863 | 134562
6 | 29:54.13 | 3:56.37 | 134563 | 152299
7 | 33:50.50 | 5:36.10 | 152300 | 177509
8 | 39:26.60 | 3:21.73 | 177510 | 192657


Характеристики диапазона извлечения и сообщения об ошибках

Выбранный диапазон

Имя файла C:\Users\эксперт\Music\Dark Angel - Live Scars.wav

Пиковый уровень 100.0 %
Качество диапазона 100.0 %
CRC копии B345922F
Копирование... OK

Ошибок не произошло


AccurateRip: сводка

Трек 1 точное извлечение (доверие 7) [CC9CD6EF]
Трек 2 точное извлечение (доверие 7) [834B2243]
Трек 3 точное извлечение (доверие 7) [DBD02D2F]
Трек 4 точное извлечение (доверие 7) [ED21DA23]
Трек 5 точное извлечение (доверие 7) [3C7CD029]
Трек 6 точное извлечение (доверие 7) [248DF8D5]
Трек 7 точное извлечение (доверие 7) [6E110256]
Трек 8 точное извлечение (доверие 7) [9CBE5DAA]

Все треки извлечены точно

Конец отчёта


Live Scars

Image

Year:1991
Style:Thrash Metal
Country:U.S.A.
Archive:Flac+Cue+Log+Scans
Size:499Mb
Source:my CD
Label:Under One Flag
Catalog ID:CD FLAG 54

Line-Up:
Ron Rinehart - vocals
Brett Eriksen - guitars
Gene Hoglan - drums
Eric Meyer - guitars
Mike Gonzalez - bass

Tracklist:
01. Time Does Not Heal 06:40
02. Pain's Invention, Madness 07:45
03. Act of Contrition 06:11
04. The New Priesthood 07:16
05. Psychosexuality 08:56
06. An Ancient Inherited Shame 09:17
07. Trauma and Catharsis 08:23
08. Sensory Deprivation 07:36
09. A Subtle Induction 05:09

"Cue"
REM GENRE "Thrash Metal"
REM DATE 1991
REM DISCID 710FBC09
REM COMMENT "ExactAudioCopy v0.99pb5"
PERFORMER "Dark Angel"
TITLE "Time Does Not Heal"
FILE "Dark Angel - Time Does Not Heal.flac" WAVE
TRACK 01 AUDIO
TITLE "Time Does Not Heal"
PERFORMER "Dark Angel"
INDEX 00 00:00:00
INDEX 01 00:00:33
TRACK 02 AUDIO
TITLE "Pain's Invention, Madness"
PERFORMER "Dark Angel"
INDEX 00 06:38:20
INDEX 01 06:40:00
TRACK 03 AUDIO
TITLE "Act Of Contrition"
PERFORMER "Dark Angel"
INDEX 00 14:23:38
INDEX 01 14:24:05
TRACK 04 AUDIO
TITLE "The New Priesthood"
PERFORMER "Dark Angel"
INDEX 00 20:33:13
INDEX 01 20:34:28
TRACK 05 AUDIO
TITLE "Psychosexuality"
PERFORMER "Dark Angel"
INDEX 00 27:48:13
INDEX 01 27:49:48
TRACK 06 AUDIO
TITLE "An Ancient Inherited Shame"
PERFORMER "Dark Angel"
INDEX 00 36:44:33
INDEX 01 36:45:43
TRACK 07 AUDIO
TITLE "Trauma And Catharsis"
PERFORMER "Dark Angel"
INDEX 00 46:01:20
INDEX 01 46:01:48
TRACK 08 AUDIO
TITLE "Sensory Deprivation"
PERFORMER "Dark Angel"
INDEX 00 54:20:38
INDEX 01 54:23:50
TRACK 09 AUDIO
TITLE "A Subtle Induction"
PERFORMER "Dark Angel"
INDEX 00 61:58:13
INDEX 01 61:59:48

"Log"
Exact Audio Copy V0.99 prebeta 5 from 4. May 2009

Отчёт EAC об извлечении, выполненном 12. июня 2013, 17:51

Dark Angel / Time Does Not Heal

Дисковод: MATSHITADVD-RAM UJ8A0AS Adapter: 0 ID: 1

Режим чтения : Достоверность
Использование точного потока : Да
Отключение кэша аудио : Да
Использование указателей C2 : Нет

Коррекция смещения при чтении : 102
Способность читать области Lead-in и Lead-out : Нет
Заполнение пропущенных сэмплов тишиной : Да
Удаление блоков с тишиной в начале и конце : Нет
При вычислениях CRC использовались нулевые сэмплы : Да
Интерфейс : Встроенный Win32-интерфейс для Win NT/2000

Выходной формат : Пользовательский кодировщик
Выбранный битрейт : 1024 kBit/s
Качество : Высокий
Добавление ID3-тэга : Нет
Утилита сжатия : C:\Program Files\Exact Audio Copy\FLAC\FLAC.EXE
Дополнительные параметры : -6 -V -T "ARTIST=%a" -T "TITLE=%t" -T "ALBUM=%g" -T "DATE=%y" -T "TRACKNUMBER=%n" -T "GENRE=%m" -T "COMMENT=%e" %s -o %d


TOC извлечённого CD

Трек | Старт | Длительность | Начальный сектор | Конечный сектор
---------------------------------------------------------------------
1 | 0:00.33 | 6:39.42 | 33 | 29999
2 | 6:40.00 | 7:44.05 | 30000 | 64804
3 | 14:24.05 | 6:10.23 | 64805 | 92577
4 | 20:34.28 | 7:15.20 | 92578 | 125222
5 | 27:49.48 | 8:55.70 | 125223 | 165417
6 | 36:45.43 | 9:16.05 | 165418 | 207122
7 | 46:01.48 | 8:22.02 | 207123 | 244774
8 | 54:23.50 | 7:35.73 | 244775 | 278972
9 | 61:59.48 | 5:08.65 | 278973 | 302137


Характеристики диапазона извлечения и сообщения об ошибках

Выбранный диапазон

Имя файла C:\Users\эксперт\Music\Dark Angel - Time Does Not Heal.wav

Пиковый уровень 97.7 %
Качество диапазона 99.9 %
CRC копии 7DD30E30
Копирование... OK

Ошибок не произошло


AccurateRip: сводка

Трек 1 точное извлечение (доверие 11) [BF6CE78C]
Трек 2 точное извлечение (доверие 11) [6CBA4A8E]
Трек 3 точное извлечение (доверие 11) [4A88648E]
Трек 4 точное извлечение (доверие 11) [AA1DEDBA]
Трек 5 точное извлечение (доверие 11) [CB72E544]
Трек 6 точное извлечение (доверие 10) [DCD3C086]
Трек 7 точное извлечение (доверие 11) [D3981311]
Трек 8 точное извлечение (доверие 9) [6A4D7AD0]
Трек 9 точность не определена (достоверность 11) [85EEFDCE], AccurateRip вернул [7253C600]

8 трек(и) скопированы точно
1 трек(и) не удалось проверить на точность

Некоторые треки не прошли проверку на точность

Конец отчёта


Time Does Not Heal


Top
 Profile  
 
 
PostPosted: 19 Apr 2016 
Я набрал 1000 сообщений!
Joined: 09 Jul 2008
Posts: 2789
Age: 45
Name: Сергей
5. Immigrant Song (Led Zeppelin cover)


Top
 Profile  
 
 
PostPosted: 20 Apr 2016 
А может смените мне статус?..
Joined: 03 Jul 2009
Posts: 868
Lоcаtion: Serbia
Name: Laki
I found Ultimate Revenge 2 here

http://darkabyss.org/index.php?topic=34490.0

Can someone download it from this site?


Top
 Profile E-mail  
 
 
PostPosted: 21 Apr 2016 
Хиппей (support team)
User avatar
Joined: 30 Jul 2007
Posts: 112772
Lоcаtion: Киев (Kyiv, UA)
Age: 45
Name: Andrey
5. Immigrant Song (Led Zeppelin cover)

:shok: :shok: :shok: На этих альбомах?
Не слышал. Не заметил даже.

_________________


Top
 Profile E-mail  
 
 
PostPosted: 21 Apr 2016 
Я набрал 1000 сообщений!
Joined: 09 Jul 2008
Posts: 2789
Age: 45
Name: Сергей
Андрюх, ты куда-то выпал )

Но это DA виноваты, то leave, то live, они явно задались целью тебя запутать! )


Top
 Profile  
 
 
PostPosted: 21 Apr 2016 
Хиппей (support team)
User avatar
Joined: 30 Jul 2007
Posts: 112772
Lоcаtion: Киев (Kyiv, UA)
Age: 45
Name: Andrey
Андрюх, ты куда-то выпал )

Но это DA виноваты, то leave, то live, они явно задались целью тебя запутать! )

Почему это?
На этих вот изданиях кавера на Цеппелинов нет. Почему? :vic:

_________________


Top
 Profile E-mail  
 
 
PostPosted: 21 Apr 2016 
Хиппей (support team)
User avatar
Joined: 30 Jul 2007
Posts: 112772
Lоcаtion: Киев (Kyiv, UA)
Age: 45
Name: Andrey
boojum wrote:
Но это DA виноваты, то leave, то live, они явно задались целью тебя запутать! )

Ааа, фуф, понял =))
Пока тебя, Серёг :crazy: Я студийник с каверами теми ещё не слушал :pardon:

_________________


Top
 Profile E-mail  
 
 
PostPosted: 21 Apr 2016 
Хиппей (support team)
User avatar
Joined: 30 Jul 2007
Posts: 112772
Lоcаtion: Киев (Kyiv, UA)
Age: 45
Name: Andrey
I found Ultimate Revenge 2 here

http://darkabyss.org/index.php?topic=34490.0

Can someone download it from this site?

Not :vic:

_________________


Top
 Profile E-mail  
 
 
PostPosted: 22 Apr 2016 
Хиппей (support team)
User avatar
Joined: 30 Jul 2007
Posts: 112772
Lоcаtion: Киев (Kyiv, UA)
Age: 45
Name: Andrey
I found Ultimate Revenge 2 here

http://darkabyss.org/index.php?topic=34490.0

Can someone download it from this site?

:arrow: viewtopic.php?f=200&t=13546 :lloo:

_________________


Top
 Profile E-mail  
 
 
PostPosted: 22 Apr 2016 
А может смените мне статус?..
Joined: 03 Jul 2009
Posts: 868
Lоcаtion: Serbia
Name: Laki
I found Ultimate Revenge 2 here

http://darkabyss.org/index.php?topic=34490.0

Can someone download it from this site?

:arrow: viewtopic.php?f=200&t=13546 :lloo:


:thanx:


Top
 Profile E-mail  
 
 
PostPosted: 03 May 2016 
Персональный статус
User avatar
Joined: 11 May 2011
Posts: 418
Lоcаtion: Omsk
Age: 29
Name: Alexander
Спасибо!
Time Does Not Heal их самый тяжело воспринимаемый альбом на мой взгляд, продолжительность композиций тому способствует.

_________________
Enigma, unholy, ungodly, commander of the regeneration
Insidious and caught, implored by disgrace
Inhumation... The burial of man
Confession... Unify all evil


Top
 Profile E-mail  
 
Display posts from previous:  Sort by  
Post new topic Reply to topic  [ 30 posts ]  Go to page Previous  1, 2

All times are UTC + 3 hours


Who is online

Users browsing this forum: No registered users and 1 guest


You cannot post new topics in this forum
You cannot reply to topics in this forum
You cannot edit your posts in this forum
You cannot delete your posts in this forum
You cannot post attachments in this forum

Search for:
Яндекс.Метрика
Powered by phpBB © 2000, 2002, 2005, 2007 phpBB Group