\m/ 80's metal \m/

Информационно-аналитический форум "80 см пыли" (In Search We Trust) "У нас никто никуда не спешит"
Me For You - http://me-4u.com
It is currently 20 Jul 2019

All times are UTC + 3 hours

Spoiler
Chat - temporary registration for foreign users (please leave your application here)







Post new topic Reply to topic  [ 14 posts ] 
Author Message
 
PostPosted: 21 Mar 2016 
Генеральный thrasher
User avatar
Joined: 03 Oct 2008
Posts: 3714
Lоcаtion: Ханты-Мансийский АО
Age: 44
Name: Сергей
Ещё одна малоизвестная трэш-бригада из моих запасников.Просуществовала с 2002 по 2009.Записала два альбома.

Image

Year:2004
Style:Thrash Metal
Country:Netherlands
Archive:Flac+Cue+Log+Scans
Size:297Mb
Source:my CD
Label:Self-Release

Line-Up:
Marc van der Bos - vocal,guitar
Robert Bakker - drums
Bjorn Hylkema - bass

Tracklist:
01. The Dark Presence 03:34
02. Insanity 04:48
03. Unholy Agression 02:52
04. Shut Up! 05:10
05. Soul Desertion 05:02
06. Reality Kills 04:13
07. Psycho Killer 03:02
08. Low Lives 06:21
09. Retribution 05:00

"Cue"
REM GENRE "Thrash Metal"
REM DATE 2004
REM DISCID 6E095E09
REM COMMENT "ExactAudioCopy v0.99pb5"
PERFORMER "Dominion"
TITLE "...Of Hate"
FILE "Dominion - ...Of Hate.flac" WAVE
TRACK 01 AUDIO
TITLE "The Dark Presence"
PERFORMER "Dominion"
INDEX 01 00:00:00
TRACK 02 AUDIO
TITLE "Insanity"
PERFORMER "Dominion"
INDEX 00 03:32:00
INDEX 01 03:34:00
TRACK 03 AUDIO
TITLE "Unholy Agression"
PERFORMER "Dominion"
INDEX 00 08:19:13
INDEX 01 08:21:13
TRACK 04 AUDIO
TITLE "Shut Up!"
PERFORMER "Dominion"
INDEX 00 11:10:42
INDEX 01 11:12:42
TRACK 05 AUDIO
TITLE "Soul Desertion"
PERFORMER "Dominion"
INDEX 00 16:19:68
INDEX 01 16:21:68
TRACK 06 AUDIO
TITLE "Reality Kills"
PERFORMER "Dominion"
INDEX 00 21:21:29
INDEX 01 21:23:29
TRACK 07 AUDIO
TITLE "Psycho Killer"
PERFORMER "Dominion"
INDEX 00 25:34:15
INDEX 01 25:36:15
TRACK 08 AUDIO
TITLE "Low Lives"
PERFORMER "Dominion"
INDEX 00 28:35:53
INDEX 01 28:37:53
TRACK 09 AUDIO
TITLE "Retribution"
PERFORMER "Dominion"
INDEX 00 34:56:26
INDEX 01 34:58:26

"Log"
Exact Audio Copy V0.99 prebeta 5 from 4. May 2009

Отчёт EAC об извлечении, выполненном 19. октября 2014, 14:58

Dominion / ...Of Hate

Дисковод: MATSHITADVD-RAM UJ8A0AS Adapter: 0 ID: 1

Режим чтения : Достоверность
Использование точного потока : Да
Отключение кэша аудио : Да
Использование указателей C2 : Нет

Коррекция смещения при чтении : 102
Способность читать области Lead-in и Lead-out : Нет
Заполнение пропущенных сэмплов тишиной : Да
Удаление блоков с тишиной в начале и конце : Нет
При вычислениях CRC использовались нулевые сэмплы : Да
Интерфейс : Встроенный Win32-интерфейс для Win NT/2000

Выходной формат : Пользовательский кодировщик
Выбранный битрейт : 1024 kBit/s
Качество : Высокий
Добавление ID3-тэга : Нет
Утилита сжатия : C:\Program Files\Exact Audio Copy\FLAC\FLAC.EXE
Дополнительные параметры : -6 -V -T "ARTIST=%a" -T "TITLE=%t" -T "ALBUM=%g" -T "DATE=%y" -T "TRACKNUMBER=%n" -T "GENRE=%m" -T "COMMENT=%e" %s -o %d


TOC извлечённого CD

Трек | Старт | Длительность | Начальный сектор | Конечный сектор
---------------------------------------------------------------------
1 | 0:00.00 | 3:34.00 | 0 | 16049
2 | 3:34.00 | 4:47.13 | 16050 | 37587
3 | 8:21.13 | 2:51.29 | 37588 | 50441
4 | 11:12.42 | 5:09.26 | 50442 | 73642
5 | 16:21.68 | 5:01.36 | 73643 | 96253
6 | 21:23.29 | 4:12.61 | 96254 | 115214
7 | 25:36.15 | 3:01.38 | 115215 | 128827
8 | 28:37.53 | 6:20.48 | 128828 | 157375
9 | 34:58.26 | 4:59.71 | 157376 | 179871


Характеристики диапазона извлечения и сообщения об ошибках

Выбранный диапазон

Имя файла C:\Users\эксперт\Music\Dominion - ...Of Hate.wav

Пиковый уровень 96.6 %
Качество диапазона 100.0 %
CRC копии 9D04F7FD
Копирование... OK

Ошибок не произошло


AccurateRip: сводка

Трек 1 нет в базе данных
Трек 2 нет в базе данных
Трек 3 нет в базе данных
Трек 4 нет в базе данных
Трек 5 нет в базе данных
Трек 6 нет в базе данных
Трек 7 нет в базе данных
Трек 8 нет в базе данных
Трек 9 нет в базе данных

Ни одного трека нет в базе AccurateRip

Конец отчёта


...Of Hate


Top
 Profile  
 
 
PostPosted: 21 Mar 2016 
Alive Again
User avatar
Joined: 17 Dec 2008
Posts: 4747
Lоcаtion: Курск Воронеж Оскол
Age: 44
Name: Дмитрий
:thanx:


Top
 Profile E-mail  
 
 
PostPosted: 21 Mar 2016 
Хиппей (support team)
User avatar
Joined: 30 Jul 2007
Posts: 113555
Lоcаtion: Киев (Kyiv, UA)
Age: 46
Name: Andrey
:thanx:

mirror: iFolder l Narod l M-Cloud

_________________


Top
 Profile E-mail  
 
 
PostPosted: 21 Mar 2016 
ТрэшЭрос
User avatar
Joined: 18 Jul 2011
Posts: 2303
Lоcаtion: Гулькевичи
Age: 44
Name: Александр
:thanx:

_________________
Thrash no trash!!!


Top
 Profile E-mail  
 
 
PostPosted: 21 Mar 2016 
Прокъмитолист
User avatar
Joined: 12 Aug 2007
Posts: 6577
Lоcаtion: Санктъ-Петербуркъ
Age: 51
Name: Олекъ
:thanx:

_________________
прокъметол - это музыко, от которово есть прок (ы)


Top
 Profile  
 
 
PostPosted: 21 Mar 2016 
Генеральный thrasher
User avatar
Joined: 03 Oct 2008
Posts: 3714
Lоcаtion: Ханты-Мансийский АО
Age: 44
Name: Сергей
Вообще на жёстком хранится куча недоделанных лосей.Рипы сделаны,сканы нет.Лень и возраст дают о себе знать...


Top
 Profile  
 
 
PostPosted: 21 Mar 2016 
Прокъмитолист
User avatar
Joined: 12 Aug 2007
Posts: 6577
Lоcаtion: Санктъ-Петербуркъ
Age: 51
Name: Олекъ
у меня похожая тема, Серёг. в какой-то момент стало ужасно неохота возиться со сканами. очередная партия рипов для ММТ уже второй год пылится на винте, а сканы делать - ну вот не хочется и всё. жду, когда откроется вторе дыхание :crazy:

_________________
прокъметол - это музыко, от которово есть прок (ы)


Top
 Profile  
 
 
PostPosted: 22 Mar 2016 
Хиппей (support team)
User avatar
Joined: 30 Jul 2007
Posts: 113555
Lоcаtion: Киев (Kyiv, UA)
Age: 46
Name: Andrey
thorbeorn wrote:
Лень и возраст дают о себе знать...

... :shok: ...

_________________


Top
 Profile E-mail  
 
 
PostPosted: 22 Mar 2016 
Хиппей (support team)
User avatar
Joined: 30 Jul 2007
Posts: 113555
Lоcаtion: Киев (Kyiv, UA)
Age: 46
Name: Andrey
thorbeorn wrote:
Dominion - ...Of Hate (2004)

Очень даже неплохо :meloman:
Трэш + хардкоровое влияние равно лепота :lob:
Не хватает немного скоростей, разнообразия и толкового вокалиста, а не сиплого читателя :pardon:
Зато есть некая изюминка, оригинальность и техника владения инструментами и креативом.
Хм, и гитара солирующая как-то дуболомно звучит.. :vic:

4/10

_________________


Top
 Profile E-mail  
 
 
PostPosted: 22 Mar 2016 
Хиппей (support team)
User avatar
Joined: 30 Jul 2007
Posts: 113555
Lоcаtion: Киев (Kyiv, UA)
Age: 46
Name: Andrey
Quote:
From the ashes of the Dutch black metal band In Ruins.

О как... :lloo:
http://www.metal-archives.com/bands/Dom ... iscography

_________________


Top
 Profile E-mail  
 
 
PostPosted: 22 Mar 2016 
Хиппей (support team)
User avatar
Joined: 30 Jul 2007
Posts: 113555
Lоcаtion: Киев (Kyiv, UA)
Age: 46
Name: Andrey
Эх, были бы все песни по типу "Reality Kills" и "Shut Up!", вышел бы красивейший и хитовый релиз.
А так... немного не торт.

_________________


Top
 Profile E-mail  
 
 
PostPosted: 22 Mar 2016 
Генеральный thrasher
User avatar
Joined: 03 Oct 2008
Posts: 3714
Lоcаtion: Ханты-Мансийский АО
Age: 44
Name: Сергей
Андрюха,мне лично весь альбомчик нравится.


Top
 Profile  
 
 
PostPosted: 22 Mar 2016 
ТрэшЭрос
User avatar
Joined: 18 Jul 2011
Posts: 2303
Lоcаtion: Гулькевичи
Age: 44
Name: Александр
...не ослил осилил :esel: Пардон! :oops:

_________________
Thrash no trash!!!


Top
 Profile E-mail  
 
 
PostPosted: 22 Mar 2016 
Хиппей (support team)
User avatar
Joined: 30 Jul 2007
Posts: 113555
Lоcаtion: Киев (Kyiv, UA)
Age: 46
Name: Andrey
Андрюха,мне лично весь альбомчик нравится.

Ну, верю, Серёг.
Просто ты или его довольно длительно слушал и привык. Или же тут сильно влияет сам факт наличия раритетного альбома да ещё и от самой группы :pardon:
Работа средненькая и серовата, пардон.

Вот ща проснулся и шо? А ничо в голове от этой группы и не осталось. Выветрилось более хитовыми вещами...

_________________


Top
 Profile E-mail  
 
Display posts from previous:  Sort by  
Post new topic Reply to topic  [ 14 posts ] 

All times are UTC + 3 hours


Who is online

Users browsing this forum: No registered users and 1 guest


You cannot post new topics in this forum
You cannot reply to topics in this forum
You cannot edit your posts in this forum
You cannot delete your posts in this forum
You cannot post attachments in this forum

Search for:
Яндекс.Метрика
cron
Powered by phpBB © 2000, 2002, 2005, 2007 phpBB Group