\m/ 80's metal \m/

Информационно-аналитический форум "80 см пыли" (In Search We Trust) "У нас никто никуда не спешит"
Me For You - http://me-4u.com
It is currently 21 Jul 2019

All times are UTC + 3 hours

Spoiler
Chat - temporary registration for foreign users (please leave your application here)







Post new topic Reply to topic  [ 43 posts ]  Go to page Previous  1, 2, 3  Next
Author Message
 
PostPosted: 28 Sep 2009 
Работнечег
User avatar
Joined: 28 Aug 2007
Posts: 5919
Lоcаtion: г. Москва
Age: 30
Name: Дима
McKagan wrote:
church wrote:
Артём, пробуй
02 - It's Not The Way You Rock

Дима, эта песня не с альбома 1983г., а с альбома 1988 :nunu:

Ну и ладно пускай и этот альбом повисит :crazy:


Top
 Profile E-mail  
 
 
PostPosted: 29 Sep 2009 
хард н хэвщик (support team)
User avatar
Joined: 02 Jun 2008
Posts: 16881
Lоcаtion: Н.Новгород
Age: 32
Name: Артем
воах, нашел вот дебютник Дёрти Лукс :crazy:

Image

http://thesubversivesounds.blogspot.com ... looks.html


Top
 Profile  
 
 
PostPosted: 12 Dec 2011 
А может смените мне статус?..
User avatar
Joined: 08 Nov 2007
Posts: 634
Lоcаtion: Crimea, UA
Age: 32
Name: Анатолий
не совсем в тему, но наверное все же напишу сюда.

Переиздали на CD их второй и третий альбомы:

I Want More

In Your Face

Может есть у кого? Все остальные альбомы в лосях, а эти 2 - глухие винил-рипы.


Top
 Profile  
 
 
PostPosted: 13 Dec 2011 
хард н хэвщик (support team)
User avatar
Joined: 02 Jun 2008
Posts: 16881
Lоcаtion: Н.Новгород
Age: 32
Name: Артем
немного подробностей
http://www.roadrunnerrecords.com/blabbe ... mID=133440

http://www.dirtylookseurope.com/discdir ... aster.html
http://www.dirtylookseurope.com/disciny ... aster.html
http://www.dirtylookseurope.com/disciwa ... aster.html


Top
 Profile  
 
 
PostPosted: 13 Dec 2011 
Хиппей (support team)
User avatar
Joined: 30 Jul 2007
Posts: 113585
Lоcаtion: Киев (Kyiv, UA)
Age: 46
Name: Andrey
Что-то у меня европейский сайт группы не открывается... :fingal:

_________________


Top
 Profile E-mail  
 
 
PostPosted: 16 Dec 2011 
Персональный статус
User avatar
Joined: 22 Oct 2011
Posts: 352
Lоcаtion: Moscow
Age: 60
Name: Серёжа
Без сканов могу оба..


Top
 Profile E-mail  
 
 
PostPosted: 16 Dec 2011 
А может смените мне статус?..
User avatar
Joined: 08 Nov 2007
Posts: 634
Lоcаtion: Crimea, UA
Age: 32
Name: Анатолий
sorog wrote:
Без сканов могу оба..


Было бы отлично :dance: сканы найдём!


Top
 Profile  
 
 
PostPosted: 18 Dec 2011 
Персональный статус
User avatar
Joined: 22 Oct 2011
Posts: 352
Lоcаtion: Moscow
Age: 60
Name: Серёжа
Dirty Looks - 1986 - In Your Face (remaster 2010) [flac]

Attachment:
Front.jpg
Front.jpg [ 88.12 KiB | Viewed 1324 times ]

Attachment:
back.jpg
back.jpg [ 190.57 KiB | Viewed 1257 times ]


1. She's a Rocker
2. Can't Take my Eyes (Off of You)
3. You Can't Take Me
4. Put a Spell on You
5. Get off
6. Tokyo
7. On Your Back
8. Let Me Go
9. Oh, Ruby
10. Undercover
11. Nevermore (bonus)

http://narod.ru/disk/34692888001/In%20Your%20Face.rar.html

log
Exact Audio Copy V1.0 beta 3 from 29. August 2011

EAC extraction logfile from 18. December 2011, 5:16

Dirty Looks / In Your Face

Used drive : Optiarc DVD RW AD-7240S Adapter: 3 ID: 2

Read mode : Secure
Utilize accurate stream : Yes
Defeat audio cache : Yes
Make use of C2 pointers : No

Read offset correction : 48
Overread into Lead-In and Lead-Out : No
Fill up missing offset samples with silence : Yes
Delete leading and trailing silent blocks : No
Null samples used in CRC calculations : Yes
Used interface : Native Win32 interface for Win NT & 2000

Used output format : User Defined Encoder
Selected bitrate : 768 kBit/s
Quality : High
Add ID3 tag : No
Command line compressor : C:\Program Files\Exact Audio Copy\FLAC\FLAC.EXE
Additional command line options : -6 -V -T "ARTIST=%artist%" -T "TITLE=%title%" -T "ALBUM=%albumtitle%" -T "DATE=%year%" -T "TRACKNUMBER=%tracknr%" -T "GENRE=%genre%" -T "COMMENT=%comment%" -T "BAND=%albuminterpret%" -T "ALBUMARTIST=%albuminterpret%" -T "COMPOSER=%composer%" %haslyrics%--tag-from-file=LYRICS="%lyricsfile%"%haslyrics% -T "DISCNUMBER=%cdnumber%" -T "TOTALDISCS=%totalcds%" -T "TOTALTRACKS=%numtracks%" %hascover%--picture="%coverfile%"%hascover% %source% -o %dest%


TOC of the extracted CD

Track | Start | Length | Start sector | End sector
---------------------------------------------------------
1 | 0:00.00 | 3:13.67 | 0 | 14541
2 | 3:13.67 | 3:17.24 | 14542 | 29340
3 | 6:31.16 | 2:47.71 | 29341 | 41936
4 | 9:19.12 | 3:26.37 | 41937 | 57423
5 | 12:45.49 | 3:20.44 | 57424 | 72467
6 | 16:06.18 | 3:18.28 | 72468 | 87345
7 | 19:24.46 | 3:41.09 | 87346 | 103929
8 | 23:05.55 | 3:44.09 | 103930 | 120738
9 | 26:49.64 | 3:58.62 | 120739 | 138650
10 | 30:48.51 | 3:51.74 | 138651 | 156049
11 | 34:40.50 | 3:59.14 | 156050 | 173988


Range status and errors

Selected range

Filename C:\Documents and Settings\Sergey\Мои документы\Dirty Looks - In Your Face.wav

Peak level 100.0 %
Extraction speed 3.6 X
Range quality 100.0 %
Copy CRC 3A3D7010
Copy OK

No errors occurred

End of status report

==== Log checksum FCF34D3BCCB1DB60DDC6358BF1AB5FA6DBD1AF9D01E62BBE44F6C244528F007D ====


cue
REM GENRE "Hard Rock"
REM DATE 1986
REM DISCID 9B090F0B
REM COMMENT "ExactAudioCopy v1.0b3"
PERFORMER "Dirty Looks"
TITLE "In Your Face"
FILE "Dirty Looks - In Your Face.flac" WAVE
TRACK 01 AUDIO
TITLE "She's A Rocker"
PERFORMER "Dirty Looks"
FLAGS DCP
INDEX 01 00:00:00
TRACK 02 AUDIO
TITLE "Can't Take My Eyes"
PERFORMER "Dirty Looks"
FLAGS DCP
INDEX 00 03:11:67
INDEX 01 03:13:67
TRACK 03 AUDIO
TITLE "You Can't Take Me"
PERFORMER "Dirty Looks"
FLAGS DCP
INDEX 00 06:29:16
INDEX 01 06:31:16
TRACK 04 AUDIO
TITLE "Put A Spell On You"
PERFORMER "Dirty Looks"
FLAGS DCP
INDEX 00 09:17:12
INDEX 01 09:19:12
TRACK 05 AUDIO
TITLE "Get Off"
PERFORMER "Dirty Looks"
FLAGS DCP
INDEX 00 12:43:49
INDEX 01 12:45:49
TRACK 06 AUDIO
TITLE "Tokyo"
PERFORMER "Dirty Looks"
FLAGS DCP
INDEX 00 16:04:18
INDEX 01 16:06:18
TRACK 07 AUDIO
TITLE "On Your Back"
PERFORMER "Dirty Looks"
FLAGS DCP
INDEX 00 19:22:46
INDEX 01 19:24:46
TRACK 08 AUDIO
TITLE "Let Me Go"
PERFORMER "Dirty Looks"
FLAGS DCP
INDEX 00 23:03:55
INDEX 01 23:05:55
TRACK 09 AUDIO
TITLE "Oh Ruby"
PERFORMER "Dirty Looks"
FLAGS DCP
INDEX 00 26:47:64
INDEX 01 26:49:64
TRACK 10 AUDIO
TITLE "Undercover"
PERFORMER "Dirty Looks"
FLAGS DCP
INDEX 00 30:46:51
INDEX 01 30:48:51
TRACK 11 AUDIO
TITLE "Nevermore"
PERFORMER "Dirty Looks"
FLAGS DCP
INDEX 00 34:38:50
INDEX 01 34:40:50


spectrum
Attachment:
spectrum.jpg
spectrum.jpg [ 357.97 KiB | Viewed 130 times ]


Top
 Profile E-mail  
 
 
PostPosted: 18 Dec 2011 
Персональный статус
User avatar
Joined: 22 Oct 2011
Posts: 352
Lоcаtion: Moscow
Age: 60
Name: Серёжа
Dirty Looks - 1987 - I Want More (remaster 2010) [flac]

Attachment:
I Want.jpg
I Want.jpg [ 160.2 KiB | Viewed 1331 times ]

Attachment:
back.jpg
back.jpg [ 128.54 KiB | Viewed 1235 times ]


1. F*ck You, I Want More
2. Tokyo
3. Oh, Ruby
4. Put a Spell on You
5. Can't Take My Eyes off You
6. Too Bad
7. Not the Way You Rock
8. It's a Bitch
9. Let Me Go
10. Undercover
11. Smell the Gasoline (bonus)
12. Narcissist (bonus)

http://narod.ru/disk/34692815001/I%20Want%20More.rar.html

log
Exact Audio Copy V1.0 beta 3 from 29. August 2011

EAC extraction logfile from 18. December 2011, 5:35

Dirty Looks / I Want More (2010 Remaster)

Used drive : Optiarc DVD RW AD-7240S Adapter: 3 ID: 2

Read mode : Secure
Utilize accurate stream : Yes
Defeat audio cache : Yes
Make use of C2 pointers : No

Read offset correction : 48
Overread into Lead-In and Lead-Out : No
Fill up missing offset samples with silence : Yes
Delete leading and trailing silent blocks : No
Null samples used in CRC calculations : Yes
Used interface : Native Win32 interface for Win NT & 2000

Used output format : User Defined Encoder
Selected bitrate : 768 kBit/s
Quality : High
Add ID3 tag : No
Command line compressor : C:\Program Files\Exact Audio Copy\FLAC\FLAC.EXE
Additional command line options : -6 -V -T "ARTIST=%artist%" -T "TITLE=%title%" -T "ALBUM=%albumtitle%" -T "DATE=%year%" -T "TRACKNUMBER=%tracknr%" -T "GENRE=%genre%" -T "COMMENT=%comment%" -T "BAND=%albuminterpret%" -T "ALBUMARTIST=%albuminterpret%" -T "COMPOSER=%composer%" %haslyrics%--tag-from-file=LYRICS="%lyricsfile%"%haslyrics% -T "DISCNUMBER=%cdnumber%" -T "TOTALDISCS=%totalcds%" -T "TOTALTRACKS=%numtracks%" %hascover%--picture="%coverfile%"%hascover% %source% -o %dest%


TOC of the extracted CD

Track | Start | Length | Start sector | End sector
---------------------------------------------------------
1 | 0:00.00 | 2:55.72 | 0 | 13196
2 | 2:55.72 | 3:15.60 | 13197 | 27881
3 | 6:11.57 | 3:47.66 | 27882 | 44972
4 | 9:59.48 | 3:21.57 | 44973 | 60104
5 | 13:21.30 | 3:05.39 | 60105 | 74018
6 | 16:26.69 | 3:19.37 | 74019 | 88980
7 | 19:46.31 | 3:33.14 | 88981 | 104969
8 | 23:19.45 | 3:20.62 | 104970 | 120031
9 | 26:40.32 | 3:36.66 | 120032 | 136297
10 | 30:17.23 | 3:47.42 | 136298 | 153364
11 | 34:04.65 | 3:48.25 | 153365 | 170489
12 | 37:53.15 | 2:12.70 | 170490 | 180459


Range status and errors

Selected range

Filename C:\Documents and Settings\Sergey\Мои документы\Dirty Looks - I Want More (2010 Remaster).wav

Suspicious position 0:38:21

Peak level 100.0 %
Extraction speed 3.0 X
Range quality 99.9 %
Copy CRC 661E2696
Copy finished

There were errors

End of status report

==== Log checksum DBF0101476E9990B0433383B840C45C71223259BA0B9495512E924256E4A2F2A ====


cue
REM GENRE "Hard Rock"
REM DATE 1987
REM DISCID 9909660C
REM COMMENT "ExactAudioCopy v1.0b3"
PERFORMER "Dirty Looks"
TITLE "I Want More (2010 Remaster)"
FILE "Dirty Looks - I Want More (2010 Remaster).flac" WAVE
TRACK 01 AUDIO
TITLE "Fuck You... I Want More"
PERFORMER "Dirty Looks"
FLAGS DCP
INDEX 01 00:00:00
TRACK 02 AUDIO
TITLE "Tokyo"
PERFORMER "Dirty Looks"
FLAGS DCP
INDEX 00 02:53:72
INDEX 01 02:55:72
TRACK 03 AUDIO
TITLE "Oh Ruby"
PERFORMER "Dirty Looks"
FLAGS DCP
INDEX 00 06:09:57
INDEX 01 06:11:57
TRACK 04 AUDIO
TITLE "Put A Spell On You"
PERFORMER "Dirty Looks"
FLAGS DCP
INDEX 00 09:57:48
INDEX 01 09:59:48
TRACK 05 AUDIO
TITLE "Can't Take My Eyes Off Of You"
PERFORMER "Dirty Looks"
FLAGS DCP
INDEX 00 13:19:30
INDEX 01 13:21:30
TRACK 06 AUDIO
TITLE "Too Bad"
PERFORMER "Dirty Looks"
FLAGS DCP
INDEX 00 16:24:69
INDEX 01 16:26:69
TRACK 07 AUDIO
TITLE "Not The Way You Rock"
PERFORMER "Dirty Looks"
FLAGS DCP
INDEX 00 19:44:31
INDEX 01 19:46:31
TRACK 08 AUDIO
TITLE "It's A Bitch"
PERFORMER "Dirty Looks"
FLAGS DCP
INDEX 00 23:17:45
INDEX 01 23:19:45
TRACK 09 AUDIO
TITLE "Let Me Go"
PERFORMER "Dirty Looks"
FLAGS DCP
INDEX 00 26:38:32
INDEX 01 26:40:32
TRACK 10 AUDIO
TITLE "Undercover"
PERFORMER "Dirty Looks"
FLAGS DCP
INDEX 00 30:15:23
INDEX 01 30:17:23
TRACK 11 AUDIO
TITLE "Smell The Gasoline (Bonus Track)"
PERFORMER "Dirty Looks"
FLAGS DCP
INDEX 00 34:02:65
INDEX 01 34:04:65
TRACK 12 AUDIO
TITLE "Narcissist (Bonus Track)"
PERFORMER "Dirty Looks"
FLAGS DCP
INDEX 00 37:51:15
INDEX 01 37:53:15


spectrum
Attachment:
spectrum.jpg
spectrum.jpg [ 375.41 KiB | Viewed 136 times ]


Top
 Profile E-mail  
 
 
PostPosted: 18 Dec 2011 
хард н хэвщик (support team)
User avatar
Joined: 02 Jun 2008
Posts: 16881
Lоcаtion: Н.Новгород
Age: 32
Name: Артем
Спасибо !


Top
 Profile  
 
 
PostPosted: 18 Dec 2011 
А может смените мне статус?..
User avatar
Joined: 08 Nov 2007
Posts: 634
Lоcаtion: Crimea, UA
Age: 32
Name: Анатолий
sorog
Спасибо!


Top
 Profile  
 
 
PostPosted: 18 Dec 2011 
Хиппей (support team)
User avatar
Joined: 30 Jul 2007
Posts: 113585
Lоcаtion: Киев (Kyiv, UA)
Age: 46
Name: Andrey
Серёж, спасибо :thanx:

Переношу в Бухту :dance:

mirrors:

Dirty Looks - 1986 - In Your Face (ramaster 2010) [flac]
MultiUp l Narod
Dirty Looks - 1987 - I Want More (remaster 2010) [flac]
MultiUp l Narod

_________________


Top
 Profile E-mail  
 
 
PostPosted: 19 Dec 2011 
А может смените мне статус?..
User avatar
Joined: 08 Nov 2007
Posts: 634
Lоcаtion: Crimea, UA
Age: 32
Name: Анатолий
Ну что, надо сказать, что на этот раз ремастер звучит неплохо! :true: Не с мастер-лент рипали, судя по всему, тоже с винила, но ощутимо лучше того, что было :thanx:


Top
 Profile  
 
 
PostPosted: 20 Dec 2011 
Хиппей (support team)
User avatar
Joined: 30 Jul 2007
Posts: 113585
Lоcаtion: Киев (Kyiv, UA)
Age: 46
Name: Andrey
Толя, второй диск точно хорошо звучит?
А чуть выше скрин спектра добавил.... Частотки то подрезаны :oops:
Сам еще альбомы не слушал :pardon:

_________________


Top
 Profile E-mail  
 
 
PostPosted: 20 Dec 2011 
Персональный статус
User avatar
Joined: 22 Oct 2011
Posts: 352
Lоcаtion: Moscow
Age: 60
Name: Серёжа
Нда...

Attachment:
Pr.JPG
Pr.JPG [ 78.46 KiB | Viewed 128 times ]

Attachment:
IMG_0225 (600 x 450).jpg
IMG_0225 (600 x 450).jpg [ 57.74 KiB | Viewed 1230 times ]


Top
 Profile E-mail  
 
 
PostPosted: 20 Dec 2011 
Хиппей (support team)
User avatar
Joined: 30 Jul 2007
Posts: 113585
Lоcаtion: Киев (Kyiv, UA)
Age: 46
Name: Andrey
Серёж, mpeg с Тау - не показатель :pardon:

_________________


Top
 Profile E-mail  
 
 
PostPosted: 20 Dec 2011 
Персональный статус
User avatar
Joined: 22 Oct 2011
Posts: 352
Lоcаtion: Moscow
Age: 60
Name: Серёжа
Это понятно. Просто я держал нос кверху и ходил выпятив грудь будучи уверенным, что обладаю редкими альбомами. (по 650 два купил) А оказалось они не полноценные :( И даже ума не хватило спектрограмму посмотреть..


Top
 Profile E-mail  
 
 
PostPosted: 20 Dec 2011 
парень в очёчкXаX!
User avatar
Joined: 15 Aug 2007
Posts: 2353
Lоcаtion: UK'раина, г. ЛондАн Би-Би-Си
Age: 48
Name: Сергей
Dirty Looks - I Want More (remaster 2010)
хм, а у меня этот же диск на разных приводах TAU определяет только один трек, как CDDA: №7 (один привод) и №8 (другой привод)
итого несмотря, что всего один трек, определяется, как CDDA, в целом, как бы весь диск по TAU-заключению является полностью CDDA
т.е. в ход идет еще и специфическое, по какой то своей TAU-формуле заключение по спектрам.
как бы там ни было диск в любом случае является редким и ценным иии тоЧЧка! :meloman:


Top
 Profile  
 
 
PostPosted: 20 Dec 2011 
Хиппей (support team)
User avatar
Joined: 30 Jul 2007
Posts: 113585
Lоcаtion: Киев (Kyiv, UA)
Age: 46
Name: Andrey
attax wrote:
как бы там ни было диск в любом случае является редким и ценным иии тоЧЧка!

Именно :dance:
Но на качественной аппаратуре не помешает и его прослушать :meloman:

sorog wrote:
И даже ума не хватило спектрограмму посмотреть..

Серёж, это мелочи, не волнуйся. Только ухи здесь скажут точно о качестве звука.

_________________


Top
 Profile E-mail  
 
 
PostPosted: 21 Dec 2011 
Персональный статус
User avatar
Joined: 22 Oct 2011
Posts: 352
Lоcаtion: Moscow
Age: 60
Name: Серёжа
А вот насчет прослушивания на качественной аппаратуре - это вопрос. Попадается масса альбомов 80-х (особенно трешово-спидушные команды), которые на 100% CDDA, частотка на спектрах аж за 22000 выпирает, а звучат просто отвратительно: басы бубнят или их совсем не слышно, тарелки звучат, как будто все они потресканные, в панораме каша, сцена сплющена, плывет и т.д. Кошмар одним словом. Вот когда есть с чем сравнить (один и тот же альбом в разных форматах или изданиях, тогда становится понятно)
Правда все МПЕГИ звучат так, как будто колонки завешаны какой-то тряпкой. Нет прозрачности и четкости. А вот CDDA... в звуке альбомов одних групп можно детально покопаться, а другие (о которых я упомянул выше) звучат хуже, чем какие-нибудь МПЕГИ..


Top
 Profile E-mail  
 
Display posts from previous:  Sort by  
Post new topic Reply to topic  [ 43 posts ]  Go to page Previous  1, 2, 3  Next

All times are UTC + 3 hours


Who is online

Users browsing this forum: No registered users and 1 guest


You cannot post new topics in this forum
You cannot reply to topics in this forum
You cannot edit your posts in this forum
You cannot delete your posts in this forum
You cannot post attachments in this forum

Search for:
Яндекс.Метрика
Powered by phpBB © 2000, 2002, 2005, 2007 phpBB Group