\m/ 80's metal \m/

Информационно-аналитический форум "80 см пыли" (In Search We Trust) "У нас никто никуда не спешит"
Me For You - http://me-4u.com
It is currently 27 May 2019

All times are UTC + 3 hours

Spoiler
Chat - temporary registration for foreign users (please leave your application here)







Post new topic Reply to topic  [ 8 posts ] 
Author Message
 
PostPosted: 10 Jan 2016 
Я набрал 1000 сообщений!
Joined: 21 Nov 2009
Posts: 1414
Lоcаtion: praga
Age: 48
Name: Сергей
Distant Thunder-Welcome the End
Группа вокалиста Helstar нарезающая в стиле J.P.-Painkiller.Интересен кавер на Accept.

Image

01 - The Day Upon You
02 - I Welcome The End
03 - Soulless Inventions
04 - Hopeless Creator
05 - Fire In The Skies
06 - Distant Thunder
07 - Beyond The Black Field Of Stars
08 - Lost In Time
09 - Finding My Way
10 - Run With The Pack
11 - Restless & Wild

James Rivera-Vocals
Eric Halpern-Guitars
Gregg Gill-Guitars, Vocals (backing)
Mike LePond-Bass
Rick Ward-Drums

Image


Image


Top
 Profile E-mail  
 
 
PostPosted: 10 Jan 2016 
спирт 100%
User avatar
Joined: 22 Sep 2008
Posts: 4416
Age: 47
Name: Саня
Спасибо! :thanx:


Top
 Profile  
 
 
PostPosted: 10 Jan 2016 
Хиппей (support team)
User avatar
Joined: 30 Jul 2007
Posts: 112855
Lоcаtion: Киев (Kyiv, UA)
Age: 45
Name: Andrey
:thanx:

Image Image Image

mirror: iFolder l Narod l M-Cloud

Image Image Image

Image Image Image

log
EAC extraction logfile from 25. May 2009, 16:34 for CD
Distant Thunder / Welcome The End

Used drive : _NEC DVD_RW ND-3500AG Adapter: 0 ID: 2
Read mode : Secure with NO C2, accurate stream, disable cache
Read offset correction : 48
Overread into Lead-In and Lead-Out : No

Used output format : Internal WAV Routines
44.100 Hz; 16 Bit; Stereo

Other options :
Fill up missing offset samples with silence : Yes
Delete leading and trailing silent blocks : No
Installed external ASPI interface


Range status and errors
Selected range
Filename E:\spiralarch\Distant Thunder - Welcome The End.wav

Peak level 98.8 %
Range quality 100.0 %
CRC C5AA21BA
Copy OK

No errors occured

End of status report

cue
REM GENRE Metal
REM DATE 2004
REM DISCID 940AF40B
REM COMMENT "ExactAudioCopy v0.95b4"
PERFORMER "Distant Thunder"
TITLE "Welcome The End"
FILE "Distant Thunder - Welcome The End.flac" WAVE
TRACK 01 AUDIO
TITLE "The Day Upon You"
PERFORMER "Distant Thunder"
INDEX 01 00:00:00
TRACK 02 AUDIO
TITLE "I Welcome The End"
PERFORMER "Distant Thunder"
INDEX 01 00:42:65
TRACK 03 AUDIO
TITLE "Soulless Inventions"
PERFORMER "Distant Thunder"
INDEX 01 04:57:68
TRACK 04 AUDIO
TITLE "Hopeless Creator"
PERFORMER "Distant Thunder"
INDEX 01 09:46:20
TRACK 05 AUDIO
TITLE "Fire In The Skies"
PERFORMER "Distant Thunder"
INDEX 01 14:03:59
TRACK 06 AUDIO
TITLE "Distant Thunder"
PERFORMER "Distant Thunder"
INDEX 01 18:02:67
TRACK 07 AUDIO
TITLE "Beyond The Black Field Of Stars"
PERFORMER "Distant Thunder"
INDEX 01 23:03:08
TRACK 08 AUDIO
TITLE "Lost In Time"
PERFORMER "Distant Thunder"
INDEX 01 26:46:45
TRACK 09 AUDIO
TITLE "Finding My Way"
PERFORMER "Distant Thunder"
INDEX 01 32:19:47
TRACK 10 AUDIO
TITLE "Run With The Pack"
PERFORMER "Distant Thunder"
INDEX 01 36:58:70
TRACK 11 AUDIO
TITLE "Restless & Wild"
PERFORMER "Distant Thunder"
INDEX 01 42:30:42

_________________


Top
 Profile E-mail  
 
 
PostPosted: 10 Jan 2016 
Хиппей (support team)
User avatar
Joined: 30 Jul 2007
Posts: 112855
Lоcаtion: Киев (Kyiv, UA)
Age: 45
Name: Andrey
Рип от Олега, прошедший через Имул обратно сюда, умиляет :crazy:

_________________


Top
 Profile E-mail  
 
 
PostPosted: 11 Jan 2016 
Хиппей (support team)
User avatar
Joined: 30 Jul 2007
Posts: 112855
Lоcаtion: Киев (Kyiv, UA)
Age: 45
Name: Andrey
sin2 wrote:
Группа вокалиста Helstar нарезающая в стиле J.P.-Painkiller

Ихххиххии, только что начал слушать. Первая песня - клон Хэлловина :nunu:
Дальше, явно, будут совмещать пристоклонирование и хэлловинопение? :kro:

_________________


Top
 Profile E-mail  
 
 
PostPosted: 11 Jan 2016 
Power Metal Maniac
User avatar
Joined: 09 Aug 2008
Posts: 6714
Lоcаtion: Москва
Age: 41
Name: Егор
В своё время релиз понравился, показался в лучших традициях Амеро-Павера как раз а-ля Helstar. Во всяком случае, увереннее и интереснее, чем предшествующий проект Риверы Destiny's End. Любопытно, что по сути тот же состав уже следующие альбомы записывал под вывеской Helstar, правда музыка стала более притрэшеванной.

_________________
Long Live Metal!


Top
 Profile  
 
 
PostPosted: 11 Jan 2016 
Хиппей (support team)
User avatar
Joined: 30 Jul 2007
Posts: 112855
Lоcаtion: Киев (Kyiv, UA)
Age: 45
Name: Andrey
"Run With The Pack" - посвящение группе Iron Maiden? :dance:

_________________


Top
 Profile E-mail  
 
 
PostPosted: 11 Jan 2016 
Хиппей (support team)
User avatar
Joined: 30 Jul 2007
Posts: 112855
Lоcаtion: Киев (Kyiv, UA)
Age: 45
Name: Andrey
Итак. послушал 2-4 раза альбом.
В общем, если попробовать всё же закрыть уши и глаза на то, что проект сам по себе является клоном двух мега-известных групп и попробовать оценить их мизерное собственное творчество, то альбом годный.
Слушается приятно, в меру скоростной, в меру тягуч. Почти всё в меру, кроме подражания. Оно, простите, зашкаливает.

6-/10 тем не менее :dance:

_________________


Top
 Profile E-mail  
 
Display posts from previous:  Sort by  
Post new topic Reply to topic  [ 8 posts ] 

All times are UTC + 3 hours


Who is online

Users browsing this forum: No registered users and 2 guests


You cannot post new topics in this forum
You cannot reply to topics in this forum
You cannot edit your posts in this forum
You cannot delete your posts in this forum
You cannot post attachments in this forum

Search for:
Яндекс.Метрика
Powered by phpBB © 2000, 2002, 2005, 2007 phpBB Group