\m/ 80's metal \m/

Информационно-аналитический форум "80 см пыли" (In Search We Trust) "У нас никто никуда не спешит"
Me For You - http://me-4u.com
It is currently 22 Aug 2019

All times are UTC + 3 hours

Spoiler
Chat - temporary registration for foreign users (please leave your application here)







Post new topic Reply to topic  [ 48 posts ]  Go to page Previous  1, 2, 3
Author Message
 
PostPosted: 10 Nov 2015 
Я набрал 1000 сообщений!
Joined: 21 Nov 2009
Posts: 1414
Lоcаtion: praga
Age: 49
Name: Сергей
Dawn Hawk - Dawn Hawk (1990)

Не плохая немецкая комманда,хотелось бы найти в лосслесс.
Image

Image

Image

Image

1. Here We Are / Running Wild
2. Flying High
3. Never
4. Freedom
5. Love Is Blind
6. Going Crazy
7. Into The Night
8. Berlin
9. Nighthawk


K.D. Haak-Bass
Werner Lieder-Drums
Frank Vandevera (R.I.P. 2013)-Guitars
Frank Noak-Vocals

Image


Last edited by sin2 on 01 Apr 2018, edited 1 time in total.

Top
 Profile E-mail  
 
 
PostPosted: 01 Apr 2018 
Хиппей (support team)
User avatar
Joined: 30 Jul 2007
Posts: 114041
Lоcаtion: Киев (Kyiv, UA)
Age: 46
Name: Andrey
В 320 без бонусов. Старое издание :pardon: https://rutracker.org/forum/viewtopic.php?t=4675834

_________________


Top
 Profile E-mail  
 
 
PostPosted: 02 Apr 2018 
Работнечег
User avatar
Joined: 28 Aug 2007
Posts: 5939
Lоcаtion: г. Москва
Age: 30
Name: Дима
Dawn Hawk - Dawn Hawk (1990) (Reissued By Kathargo) FLAC + CUE + Covers

Image

Tracklist:
1. Here We Are
2. Running Wild
3. Flying High
4. Never
5. Freedom
6. Love Is Blind
7. Going Crazy
8. Into the Night
9. Berlin
10. Nighthawk
11. Raised by Wolves
12. Dragon Tears
13. Love Is Truth
14. Warning
15. Win or Lose
16. It Will Get You

LOG
Exact Audio Copy V0.99 prebeta 5 from 4. May 2009

EAC extraction logfile from 1. April 2018, 17:13

Dawn Hawk / Dawn Hawk (Remastered In 2015)

Used drive : PIONEER DVD-RW DVR-221 Adapter: 2 ID: 1

Read mode : Secure
Utilize accurate stream : Yes
Defeat audio cache : Yes
Make use of C2 pointers : No

Read offset correction : 6
Overread into Lead-In and Lead-Out : No
Fill up missing offset samples with silence : Yes
Delete leading and trailing silent blocks : No
Null samples used in CRC calculations : Yes
Used interface : Native Win32 interface for Win NT & 2000

Used output format : User Defined Encoder
Selected bitrate : 32 kBit/s
Quality : High
Add ID3 tag : No
Command line compressor : C:\Program Files\Exact Audio Copy\Flac\flac.exe
Additional command line options : -6 -V %s


TOC of the extracted CD

Track | Start | Length | Start sector | End sector
---------------------------------------------------------
1 | 0:00.00 | 1:59.20 | 0 | 8944
2 | 1:59.20 | 4:37.66 | 8945 | 29785
3 | 6:37.11 | 5:15.55 | 29786 | 53465
4 | 11:52.66 | 4:11.60 | 53466 | 72350
5 | 16:04.51 | 6:12.65 | 72351 | 100315
6 | 22:17.41 | 4:01.40 | 100316 | 118430
7 | 26:19.06 | 5:13.01 | 118431 | 141906
8 | 31:32.07 | 7:04.47 | 141907 | 173753
9 | 38:36.54 | 7:11.63 | 173754 | 206141
10 | 45:48.42 | 4:17.74 | 206142 | 225490
11 | 50:06.41 | 3:45.28 | 225491 | 242393
12 | 53:51.69 | 4:31.39 | 242394 | 262757
13 | 58:23.33 | 4:40.36 | 262758 | 283793
14 | 63:03.69 | 3:50.44 | 283794 | 301087
15 | 66:54.38 | 4:39.09 | 301088 | 322021
16 | 71:33.47 | 4:20.24 | 322022 | 341545


Range status and errors

Selected range

Filename D:\Музыка\Lossless\Dawn Hawk - Dawn Hawk (1990)(Remastered In 2015)\Dawn Hawk - Dawn Hawk (Remastered In 2015).wav

Peak level 96.6 %
Range quality 99.9 %
Copy CRC 359C0C93
Copy OK

No errors occurred


AccurateRip summary

Track 1 not present in database
Track 2 not present in database
Track 3 not present in database
Track 4 not present in database
Track 5 not present in database
Track 6 not present in database
Track 7 not present in database
Track 8 not present in database
Track 9 not present in database
Track 10 not present in database
Track 11 not present in database
Track 12 not present in database
Track 13 not present in database
Track 14 not present in database
Track 15 not present in database
Track 16 not present in database

None of the tracks are present in the AccurateRip database

End of status report


CUE
REM GENRE "Heavy Metal"
REM DATE 1990
REM DISCID E611C910
REM COMMENT "ExactAudioCopy v0.99pb5"
PERFORMER "Dawn Hawk"
TITLE "Dawn Hawk (Remastered In 2015)"
FILE "Dawn Hawk - Dawn Hawk (Remastered In 2015).flac" WAVE
TRACK 01 AUDIO
TITLE "Here We Are"
PERFORMER "Dawn Hawk"
INDEX 01 00:00:00
TRACK 02 AUDIO
TITLE "Running Wild"
PERFORMER "Dawn Hawk"
INDEX 01 01:59:20
TRACK 03 AUDIO
TITLE "Flying High"
PERFORMER "Dawn Hawk"
INDEX 01 06:37:11
TRACK 04 AUDIO
TITLE "Never"
PERFORMER "Dawn Hawk"
INDEX 01 11:52:66
TRACK 05 AUDIO
TITLE "Freedom"
PERFORMER "Dawn Hawk"
INDEX 01 16:04:51
TRACK 06 AUDIO
TITLE "Love Is Blind"
PERFORMER "Dawn Hawk"
INDEX 01 22:17:41
TRACK 07 AUDIO
TITLE "Going Crazy"
PERFORMER "Dawn Hawk"
INDEX 01 26:19:06
TRACK 08 AUDIO
TITLE "Into The Night"
PERFORMER "Dawn Hawk"
INDEX 01 31:32:07
TRACK 09 AUDIO
TITLE "Berlin"
PERFORMER "Dawn Hawk"
INDEX 01 38:36:54
TRACK 10 AUDIO
TITLE "Nighthawk"
PERFORMER "Dawn Hawk"
INDEX 01 45:48:42
TRACK 11 AUDIO
TITLE "Raised By Wolves (Bonus)"
PERFORMER "Dawn Hawk"
INDEX 01 50:06:41
TRACK 12 AUDIO
TITLE "Dragon Tears"
PERFORMER "Dawn Hawk"
INDEX 01 53:51:69
TRACK 13 AUDIO
TITLE "Love Is Truth (Bonus)"
PERFORMER "Dawn Hawk"
INDEX 01 58:23:33
TRACK 14 AUDIO
TITLE "Warning (Bonus)"
PERFORMER "Dawn Hawk"
INDEX 01 63:03:69
TRACK 15 AUDIO
TITLE "Win Or Loose (Bonus)"
PERFORMER "Dawn Hawk"
INDEX 01 66:54:38
TRACK 16 AUDIO
TITLE "It Will Get You (Bonus)"
PERFORMER "Dawn Hawk"
INDEX 01 71:33:47


Yadi


Top
 Profile E-mail  
 
 
PostPosted: 02 Apr 2018 
Хиппей (support team)
User avatar
Joined: 30 Jul 2007
Posts: 114041
Lоcаtion: Киев (Kyiv, UA)
Age: 46
Name: Andrey
О, красота какая, Дим :thanx:

mirror: Giga l Drop l Narod l M-Cloud

_________________


Top
 Profile E-mail  
 
 
PostPosted: 02 Apr 2018 
Прокъмитолист
User avatar
Joined: 12 Aug 2007
Posts: 6590
Lоcаtion: Санктъ-Петербуркъ
Age: 51
Name: Олекъ
:thanx:

_________________
прокъметол - это музыко, от которово есть прок (ы)


Top
 Profile  
 
 
PostPosted: 02 Apr 2018 
Анатолий
User avatar
Joined: 18 Oct 2008
Posts: 3525
Lоcаtion: Армавир
Age: 42
Name: Анатолий
Просто шикарно!!!! Спасибо!!! :thanx: :true:


Top
 Profile E-mail  
 
 
PostPosted: 02 Apr 2018 
Рарник и трушник
User avatar
Joined: 25 Dec 2009
Posts: 8726
Lоcаtion: Москва
Age: 54
Name: Виталий
:thanx:


Top
 Profile  
 
 
PostPosted: 03 Apr 2018 
Хиппей (support team)
User avatar
Joined: 30 Jul 2007
Posts: 114041
Lоcаtion: Киев (Kyiv, UA)
Age: 46
Name: Andrey
Чего-то я полный альбом сразу не понял... :scratch:

А вот бонусы зашли сразу :meloman: :meloman: :meloman: :lob:

_________________


Top
 Profile E-mail  
 
 
PostPosted: 03 Apr 2018 
Хиппей (support team)
User avatar
Joined: 30 Jul 2007
Posts: 114041
Lоcаtion: Киев (Kyiv, UA)
Age: 46
Name: Andrey
А, впрочем, на 1-й страничке я уже об альбоме-сборнике этом печатал чота.

_________________


Top
 Profile E-mail  
 
Display posts from previous:  Sort by  
Post new topic Reply to topic  [ 48 posts ]  Go to page Previous  1, 2, 3

All times are UTC + 3 hours


Who is online

Users browsing this forum: No registered users and 1 guest


You cannot post new topics in this forum
You cannot reply to topics in this forum
You cannot edit your posts in this forum
You cannot delete your posts in this forum
You cannot post attachments in this forum

Search for:
Яндекс.Метрика
Powered by phpBB © 2000, 2002, 2005, 2007 phpBB Group