\m/ 80's metal \m/

Информационно-аналитический форум "80 см пыли" (In Search We Trust) "У нас никто никуда не спешит"
Me For You - http://me-4u.com
It is currently 23 May 2019

All times are UTC + 3 hours

Spoiler
Chat - temporary registration for foreign users (please leave your application here)







Post new topic Reply to topic  [ 31 posts ]  Go to page Previous  1, 2
Author Message
 
PostPosted: 03 Apr 2017 
Генеральный thrasher
User avatar
Joined: 03 Oct 2008
Posts: 3705
Lоcаtion: Ханты-Мансийский АО
Age: 44
Name: Сергей
Detente - Decline 2010 (2016) с бонусами раздаю на тракторе,если кому надо...


Top
 Profile  
 
 
PostPosted: 03 Apr 2017 
дядя Миша
User avatar
Joined: 17 Oct 2008
Posts: 3118
Lоcаtion: USSR
Age: 56
Name: Khy
О,одни из любимчиков.


Top
 Profile  
 
 
PostPosted: 03 Apr 2017 
Хиппей (support team)
User avatar
Joined: 30 Jul 2007
Posts: 112689
Lоcаtion: Киев (Kyiv, UA)
Age: 45
Name: Andrey
thorbeorn wrote:
Detente - Decline 2010 (2016) с бонусами

Схожу заберу тоже :thanx:

_________________


Top
 Profile E-mail  
 
 
PostPosted: 03 Apr 2017 
Хиппей (support team)
User avatar
Joined: 30 Jul 2007
Posts: 112689
Lоcаtion: Киев (Kyiv, UA)
Age: 45
Name: Andrey
thorbeorn wrote:
Detente - Decline 2010 (2016) с бонусами раздаю на тракторе,если кому надо...


Источник :arrow: https://rutracker.org/forum/viewtopic.php?t=5382705 :thanx:

Detente - 2010 - Decline (reissue 2016) [flac]

Image Image Image

mirror: Depos l Narod l M-Cloud

Image Image Image
Image Image Image


log
Exact Audio Copy V1.1 from 23. June 2015

Отчёт EAC об извлечении, выполненном 1. февраля 2017, 11:50

Detente / Decline

Дисковод: HL-DT-STDVDRAM GTA0N Adapter: 1 ID: 0

Режим чтения : Достоверность
Использование точного потока : Да
Отключение кэша аудио : Да
Использование указателей C2 : Нет

Коррекция смещения при чтении : 102
Способность читать области Lead-in и Lead-out : Нет
Заполнение пропущенных сэмплов тишиной : Да
Удаление блоков с тишиной в начале и конце : Нет
При вычислениях CRC использовались нулевые сэмплы : Да
Интерфейс : Встроенный Win32-интерфейс для Win NT/2000

Выходной формат : Пользовательский кодировщик
Выбранный битрейт : 768 kBit/s
Качество : Высокий
Добавление ID3-тега : Нет
Утилита сжатия : C:\Program Files (x86)\Exact Audio Copy\FLAC\FLAC.EXE
Дополнительные параметры : -6 -V -T "ARTIST=%artist%" -T "TITLE=%title%" -T "ALBUM=%albumtitle%" -T "DATE=%year%" -T "TRACKNUMBER=%tracknr%" -T "GENRE=%genre%" -T "COMMENT=%comment%" -T "BAND=%albuminterpret%" -T "ALBUMARTIST=%albuminterpret%" -T "COMPOSER=%composer%" %haslyrics%--tag-from-file=LYRICS="%lyricsfile%"%haslyrics% -T "DISCNUMBER=%cdnumber%" -T "TOTALDISCS=%totalcds%" -T "TOTALTRACKS=%numtracks%" %hascover%--picture="%coverfile%"%hascover% %source% -o %dest%


TOC извлечённого CD

Трек | Старт | Длительность | Начальный сектор | Конечный сектор
---------------------------------------------------------------------
1 | 0:00.00 | 2:50.23 | 0 | 12772
2 | 2:50.23 | 2:54.62 | 12773 | 25884
3 | 5:45.10 | 3:28.17 | 25885 | 41501
4 | 9:13.27 | 4:42.35 | 41502 | 62686
5 | 13:55.62 | 2:45.16 | 62687 | 75077
6 | 16:41.03 | 2:56.05 | 75078 | 88282
7 | 19:37.08 | 2:34.24 | 88283 | 99856
8 | 22:11.32 | 5:10.42 | 99857 | 123148
9 | 27:21.74 | 2:47.31 | 123149 | 135704
10 | 30:09.30 | 3:27.50 | 135705 | 151279
11 | 33:37.05 | 4:43.23 | 151280 | 172527
12 | 38:20.28 | 2:39.55 | 172528 | 184507


Характеристики диапазона извлечения и сообщения об ошибках

Выбранный диапазон

Имя файла C:\Users\магазин\Music\Detente - Decline.wav

Пиковый уровень 100.0 %
Скорость извлечения 3.8 X
Качество диапазона 99.9 %
CRC теста 9B95A7C6
CRC копии 9B95A7C6
Копирование... OK

Ошибок не произошло


AccurateRip: сводка

Трек 1 отсутствует в базе данных
Трек 2 отсутствует в базе данных
Трек 3 отсутствует в базе данных
Трек 4 отсутствует в базе данных
Трек 5 отсутствует в базе данных
Трек 6 отсутствует в базе данных
Трек 7 отсутствует в базе данных
Трек 8 отсутствует в базе данных
Трек 9 отсутствует в базе данных
Трек 10 отсутствует в базе данных
Трек 11 отсутствует в базе данных
Трек 12 отсутствует в базе данных

Ни одного трека нет в базе AccurateRip

Конец отчёта

---- CUETools DB Plugin V2.1.6

[CTDB TOCID: O6DQ3dKbt4TtB1zlwoTdXC4NMdE-] disk not present in database
Submit result: O6DQ3dKbt4TtB1zlwoTdXC4NMdE- has been uploaded

cue
REM GENRE "Thrash/Speed Metal"
REM DATE 2016
REM DISCID 87099C0C
REM COMMENT "ExactAudioCopy v1.1"
PERFORMER "Detente"
TITLE "Decline"
FILE "Detente - Decline.flac" WAVE
TRACK 01 AUDIO
TITLE "In God We Trust"
PERFORMER "Detente"
INDEX 01 00:00:00
TRACK 02 AUDIO
TITLE "Predator"
PERFORMER "Detente"
INDEX 01 02:50:23
TRACK 03 AUDIO
TITLE "Kill Rush"
PERFORMER "Detente"
INDEX 01 05:45:10
TRACK 04 AUDIO
TITLE "Degradation Machine"
PERFORMER "Detente"
INDEX 01 09:13:27
TRACK 05 AUDIO
TITLE "Decline"
PERFORMER "Detente"
INDEX 01 13:55:62
TRACK 06 AUDIO
TITLE "Genocide"
PERFORMER "Detente"
INDEX 01 16:41:03
TRACK 07 AUDIO
TITLE "This Is Not Freedom"
PERFORMER "Detente"
INDEX 01 19:37:08
TRACK 08 AUDIO
TITLE "Ashes"
PERFORMER "Detente"
INDEX 01 22:11:32
TRACK 09 AUDIO
TITLE "Blood I Bleed"
PERFORMER "Detente"
INDEX 01 27:21:74
TRACK 10 AUDIO
TITLE "Kill The Voice"
PERFORMER "Detente"
INDEX 01 30:09:30
TRACK 11 AUDIO
TITLE "Play God"
PERFORMER "Detente"
INDEX 01 33:37:05
TRACK 12 AUDIO
TITLE "Ashes To Ashes"
PERFORMER "Detente"
INDEX 01 38:20:28

_________________


Top
 Profile E-mail  
 
 
PostPosted: 03 Apr 2017 
Генеральный thrasher
User avatar
Joined: 03 Oct 2008
Posts: 3705
Lоcаtion: Ханты-Мансийский АО
Age: 44
Name: Сергей
О как быстро! :shok: Андрюх,ты тогда хоть тему переименуй!


Top
 Profile  
 
 
PostPosted: 03 Apr 2017 
Прокъмитолист
User avatar
Joined: 12 Aug 2007
Posts: 6552
Lоcаtion: Санктъ-Петербуркъ
Age: 51
Name: Олекъ
Scatterbrain wrote:
Схожу заберу тоже

и я :thanx:

_________________
прокъметол - это музыко, от которово есть прок (ы)


Top
 Profile  
 
 
PostPosted: 03 Apr 2017 
Хиппей (support team)
User avatar
Joined: 30 Jul 2007
Posts: 112689
Lоcаtion: Киев (Kyiv, UA)
Age: 45
Name: Andrey
О как быстро! :shok: Андрюх,ты тогда хоть тему переименуй!

Ага, щас.

_________________


Top
 Profile E-mail  
 
 
PostPosted: 03 Apr 2017 
Хиппей (support team)
User avatar
Joined: 30 Jul 2007
Posts: 112689
Lоcаtion: Киев (Kyiv, UA)
Age: 45
Name: Andrey
Хотел ужо было заклеймить позором альбом с новой вокалисткой, но.. нежданно два бонуса понраивлись.
Эээ... это кто на них поёт? :oops:

_________________


Top
 Profile E-mail  
 
 
PostPosted: 03 Apr 2017 
Генеральный thrasher
User avatar
Joined: 03 Oct 2008
Posts: 3705
Lоcаtion: Ханты-Мансийский АО
Age: 44
Name: Сергей
Ann Boleyn из Hellion...


Top
 Profile  
 
 
PostPosted: 03 Apr 2017 
Хиппей (support team)
User avatar
Joined: 30 Jul 2007
Posts: 112689
Lоcаtion: Киев (Kyiv, UA)
Age: 45
Name: Andrey
Ааа.. ну... :cry:

Image

_________________


Top
 Profile E-mail  
 
 
PostPosted: 03 Apr 2017 
Хиппей (support team)
User avatar
Joined: 30 Jul 2007
Posts: 112689
Lоcаtion: Киев (Kyiv, UA)
Age: 45
Name: Andrey
Scatterbrain wrote:
Хотел ужо было заклеймить позором альбом с новой вокалисткой

5/10 примерно
Стена звука имеется, в общем. Музыка нормальная, даже хороша, вокалиста новая орёт и даже поёт, но... но... :(
Это уже не Дэтэнт, а нечто иное. Моднявое, современное.

_________________


Top
 Profile E-mail  
 
Display posts from previous:  Sort by  
Post new topic Reply to topic  [ 31 posts ]  Go to page Previous  1, 2

All times are UTC + 3 hours


Who is online

Users browsing this forum: No registered users and 4 guests


You cannot post new topics in this forum
You cannot reply to topics in this forum
You cannot edit your posts in this forum
You cannot delete your posts in this forum
You cannot post attachments in this forum

Search for:
Яндекс.Метрика
Powered by phpBB © 2000, 2002, 2005, 2007 phpBB Group