\m/ 80's metal \m/

Информационно-аналитический форум "80 см пыли" (In Search We Trust) "У нас никто никуда не спешит"
Me For You - http://me-4u.com
It is currently 25 Aug 2019

All times are UTC + 3 hours

Spoiler
Chat - temporary registration for foreign users (please leave your application here)







Post new topic Reply to topic  [ 31 posts ]  Go to page 1, 2  Next
Author Message
 
PostPosted: 22 Jun 2015 
Генеральный thrasher
User avatar
Joined: 03 Oct 2008
Posts: 3720
Lоcаtion: Ханты-Мансийский АО
Age: 44
Name: Сергей
Серёга splatty писал об этом переиздании в своих обзорах трэш-новостей.Вот собственно это двухдисковое переиздание.Тут вам и сам альбом,и демки Detente и Catalepsy.

Image

Year:1986 (2014 Re-Issue)
Style:Thrash Metal
Country:U.S.A.
Archive:Flac+Cue+Log+Scans
Size:310Mb+471Mb
Source:my CD
Label:Xtreem Music
Catalog ID:XM166CD

CD 1:
01. Losers 03:20
02. Russian Roulette 04:16
03. It's Your Fate 03:16
04. Holy Wars 04:25
05. Catalepsy 02:49
06. Shattered Illusions 03:07
07. Life Is Pain 03:58
08. Blood I Bleed 02:53
09. Widows Walk 02:34
10. Vultures In The Sky 03:34
11. Blood I Bleed [Tina Teal 2010] 02:46
12. Genocide [Tina Teal 2010] 02:56


CD 2:
Demo I - '84
01. Shattered Illusions 03:01
02. Vultures In The Sky 03:06
Demo II - '84
03. Widows Walk 02:19
04. Holy Wars 03:36
05. Chemical Joy (Rehearsal '85) 02:23
06. Murder Inc (Live Dec. 5th, 1985 LA, CA) 02:14
Demo III -'87
07. Diseased 04:21
08. Wasted Time 06:29
09. All That Remain 05:04
Demo IV -'89
10. Red To Grey 05:41
11. Coming Down 03:28
12. Loves Death 03:46
Catalepsy "Demo I -'87"
13. An Offering 04:08
14. Evil Within 03:34
15. Obituary Fear 03:45
Catalepsy "Demo II -'88"
16. Under The Influence 03:17
17. Law And Disorder 03:21
18. Who Can You Trust 02:58
19. Piece Of My Heart (Janis Joplin Cover) 03:55

"Cue 1"
REM GENRE "Thrash Metal"
REM DATE 2014
REM DISCID A409680C
REM COMMENT "ExactAudioCopy v0.99pb5"
PERFORMER "Detente"
TITLE "Recognize No Authority CD 1"
FILE "Detente - Recognize No Authority CD 1.flac" WAVE
TRACK 01 AUDIO
TITLE "Losers"
PERFORMER "Detente"
INDEX 01 00:00:00
TRACK 02 AUDIO
TITLE "Russian Roulette"
PERFORMER "Detente"
INDEX 01 03:20:11
TRACK 03 AUDIO
TITLE "It's Your Fate"
PERFORMER "Detente"
INDEX 01 07:36:26
TRACK 04 AUDIO
TITLE "Holy Wars"
PERFORMER "Detente"
INDEX 01 10:52:58
TRACK 05 AUDIO
TITLE "Catalepsy"
PERFORMER "Detente"
INDEX 01 15:18:24
TRACK 06 AUDIO
TITLE "Shattered Illusions"
PERFORMER "Detente"
INDEX 01 18:07:61
TRACK 07 AUDIO
TITLE "Life is Pain"
PERFORMER "Detente"
INDEX 01 21:15:57
TRACK 08 AUDIO
TITLE "Blood I Bleed"
PERFORMER "Detente"
INDEX 01 25:13:66
TRACK 09 AUDIO
TITLE "Widow's Walk"
PERFORMER "Detente"
INDEX 01 28:07:54
TRACK 10 AUDIO
TITLE "Vultures in the Sky"
PERFORMER "Detente"
INDEX 01 30:42:04
TRACK 11 AUDIO
TITLE "Blood I Bleed [Tiina Teal 2010]"
PERFORMER "Detente"
INDEX 01 34:26:24
TRACK 12 AUDIO
TITLE "Genocide (Catalepsy) [Tiina Teal 2010]"
PERFORMER "Detente"
INDEX 01 37:12:68

"Cue 2"
REM GENRE "Thrash Metal"
REM DATE 2014
REM DISCID 08108913
REM COMMENT "ExactAudioCopy v0.99pb5"
PERFORMER "Detente"
TITLE "Recognize No Authority CD 2"
FILE "Detente - Recognize No Authority CD 2.flac" WAVE
TRACK 01 AUDIO
TITLE "Shattered Illusions (Demo I 84)"
PERFORMER "Detente"
INDEX 01 00:00:00
TRACK 02 AUDIO
TITLE "Vultures in the Sky (Demo I 84)"
PERFORMER "Detente"
INDEX 01 03:01:03
TRACK 03 AUDIO
TITLE "Widows Walk (Demo II 84)"
PERFORMER "Detente"
INDEX 01 06:07:08
TRACK 04 AUDIO
TITLE "Holy Wars (Demo II 84)"
PERFORMER "Detente"
INDEX 01 08:26:08
TRACK 05 AUDIO
TITLE "Chemical Joy (Rehearsal 85)"
PERFORMER "Detente"
INDEX 01 12:02:10
TRACK 06 AUDIO
TITLE "Murder Inc (Live Dec. 5th, 1985 LA,CA)"
PERFORMER "Detente"
INDEX 01 14:26:07
TRACK 07 AUDIO
TITLE "Diseased (Demo III 87)"
PERFORMER "Detente"
INDEX 01 16:40:58
TRACK 08 AUDIO
TITLE "Wasted Time (Demo III 87)"
PERFORMER "Detente"
INDEX 01 21:01:67
TRACK 09 AUDIO
TITLE "All that Remain (Demo III 87)"
PERFORMER "Detente"
INDEX 01 27:31:03
TRACK 10 AUDIO
TITLE "Red to Grey (Demo IV 89)"
PERFORMER "Detente"
INDEX 01 32:35:16
TRACK 11 AUDIO
TITLE "Coming Down (Demo IV 89)"
PERFORMER "Detente"
INDEX 01 38:16:69
TRACK 12 AUDIO
TITLE "Loves Death (Demo IV 89)"
PERFORMER "Detente"
INDEX 01 41:45:28
TRACK 13 AUDIO
TITLE "Catalepsy - An Offering (Demo I 87)"
PERFORMER "Detente"
INDEX 01 45:32:05
TRACK 14 AUDIO
TITLE "Catalepsy - Evil Within (Demo I 87)"
PERFORMER "Detente"
INDEX 01 49:40:13
TRACK 15 AUDIO
TITLE "Catalepsy - Obituary Fear (Demo I 87)"
PERFORMER "Detente"
INDEX 01 53:14:56
TRACK 16 AUDIO
TITLE "Catalepsy - Under the Influence (Demo II 88)"
PERFORMER "Detente"
INDEX 01 57:00:43
TRACK 17 AUDIO
TITLE "Catalepsy - Law and Disorder (Demo II 88)"
PERFORMER "Detente"
INDEX 01 60:18:25
TRACK 18 AUDIO
TITLE "Catalepsy - Who Can You Trust (Demo II 88)"
PERFORMER "Detente"
INDEX 01 63:39:45
TRACK 19 AUDIO
TITLE "Catalepsy - Piece of My Heart (Demo II 88)"
PERFORMER "Detente"
INDEX 01 66:38:27

"Log 1"
Exact Audio Copy V0.99 prebeta 5 from 4. May 2009

Отчёт EAC об извлечении, выполненном 15. апреля 2015, 11:40

Detente / Recognize No Authority CD 1

Дисковод: MATSHITADVD-RAM UJ8A0AS Adapter: 0 ID: 1

Режим чтения : Достоверность
Использование точного потока : Да
Отключение кэша аудио : Да
Использование указателей C2 : Нет

Коррекция смещения при чтении : 102
Способность читать области Lead-in и Lead-out : Нет
Заполнение пропущенных сэмплов тишиной : Да
Удаление блоков с тишиной в начале и конце : Нет
При вычислениях CRC использовались нулевые сэмплы : Да
Интерфейс : Встроенный Win32-интерфейс для Win NT/2000

Выходной формат : Пользовательский кодировщик
Выбранный битрейт : 1024 kBit/s
Качество : Высокий
Добавление ID3-тэга : Нет
Утилита сжатия : C:\Program Files\Exact Audio Copy\FLAC\FLAC.EXE
Дополнительные параметры : -6 -V -T "ARTIST=%a" -T "TITLE=%t" -T "ALBUM=%g" -T "DATE=%y" -T "TRACKNUMBER=%n" -T "GENRE=%m" -T "COMMENT=%e" %s -o %d


TOC извлечённого CD

Трек | Старт | Длительность | Начальный сектор | Конечный сектор
---------------------------------------------------------------------
1 | 0:00.00 | 3:20.11 | 0 | 15010
2 | 3:20.11 | 4:16.15 | 15011 | 34225
3 | 7:36.26 | 3:16.32 | 34226 | 48957
4 | 10:52.58 | 4:25.41 | 48958 | 68873
5 | 15:18.24 | 2:49.37 | 68874 | 81585
6 | 18:07.61 | 3:07.71 | 81586 | 95681
7 | 21:15.57 | 3:58.09 | 95682 | 113540
8 | 25:13.66 | 2:53.63 | 113541 | 126578
9 | 28:07.54 | 2:34.25 | 126579 | 138153
10 | 30:42.04 | 3:44.20 | 138154 | 154973
11 | 34:26.24 | 2:46.44 | 154974 | 167467
12 | 37:12.68 | 2:56.04 | 167468 | 180671


Характеристики диапазона извлечения и сообщения об ошибках

Выбранный диапазон

Имя файла C:\Users\эксперт\Music\Detente - Recognize No Authority CD 1.wav

Пиковый уровень 100.0 %
Качество диапазона 100.0 %
CRC копии DA4459F4
Копирование... OK

Ошибок не произошло


AccurateRip: сводка

Трек 1 нет в базе данных
Трек 2 нет в базе данных
Трек 3 нет в базе данных
Трек 4 нет в базе данных
Трек 5 нет в базе данных
Трек 6 нет в базе данных
Трек 7 нет в базе данных
Трек 8 нет в базе данных
Трек 9 нет в базе данных
Трек 10 нет в базе данных
Трек 11 нет в базе данных
Трек 12 нет в базе данных

Ни одного трека нет в базе AccurateRip

Конец отчёта

"Log 2"
Exact Audio Copy V0.99 prebeta 5 from 4. May 2009

Отчёт EAC об извлечении, выполненном 15. апреля 2015, 13:05

Detente / Recognize No Authority CD 2

Дисковод: MATSHITADVD-RAM UJ8A0AS Adapter: 0 ID: 1

Режим чтения : Достоверность
Использование точного потока : Да
Отключение кэша аудио : Да
Использование указателей C2 : Нет

Коррекция смещения при чтении : 102
Способность читать области Lead-in и Lead-out : Нет
Заполнение пропущенных сэмплов тишиной : Да
Удаление блоков с тишиной в начале и конце : Нет
При вычислениях CRC использовались нулевые сэмплы : Да
Интерфейс : Встроенный Win32-интерфейс для Win NT/2000

Выходной формат : Пользовательский кодировщик
Выбранный битрейт : 1024 kBit/s
Качество : Высокий
Добавление ID3-тэга : Нет
Утилита сжатия : C:\Program Files\Exact Audio Copy\FLAC\FLAC.EXE
Дополнительные параметры : -6 -V -T "ARTIST=%a" -T "TITLE=%t" -T "ALBUM=%g" -T "DATE=%y" -T "TRACKNUMBER=%n" -T "GENRE=%m" -T "COMMENT=%e" %s -o %d


TOC извлечённого CD

Трек | Старт | Длительность | Начальный сектор | Конечный сектор
---------------------------------------------------------------------
1 | 0:00.00 | 3:01.03 | 0 | 13577
2 | 3:01.03 | 3:06.05 | 13578 | 27532
3 | 6:07.08 | 2:19.00 | 27533 | 37957
4 | 8:26.08 | 3:36.02 | 37958 | 54159
5 | 12:02.10 | 2:23.72 | 54160 | 64956
6 | 14:26.07 | 2:14.51 | 64957 | 75057
7 | 16:40.58 | 4:21.09 | 75058 | 94641
8 | 21:01.67 | 6:29.11 | 94642 | 123827
9 | 27:31.03 | 5:04.13 | 123828 | 146640
10 | 32:35.16 | 5:41.53 | 146641 | 172268
11 | 38:16.69 | 3:28.34 | 172269 | 187902
12 | 41:45.28 | 3:46.52 | 187903 | 204904
13 | 45:32.05 | 4:08.08 | 204905 | 223512
14 | 49:40.13 | 3:34.43 | 223513 | 239605
15 | 53:14.56 | 3:45.62 | 239606 | 256542
16 | 57:00.43 | 3:17.57 | 256543 | 271374
17 | 60:18.25 | 3:21.20 | 271375 | 286469
18 | 63:39.45 | 2:58.57 | 286470 | 299876
19 | 66:38.27 | 3:55.14 | 299877 | 317515


Характеристики диапазона извлечения и сообщения об ошибках

Выбранный диапазон

Имя файла C:\Users\эксперт\Music\Detente - Recognize No Authority CD 2.wav

Пиковый уровень 100.0 %
Качество диапазона 100.0 %
CRC копии D0BA19AA
Копирование... OK

Ошибок не произошло


AccurateRip: сводка

Трек 1 нет в базе данных
Трек 2 нет в базе данных
Трек 3 нет в базе данных
Трек 4 нет в базе данных
Трек 5 нет в базе данных
Трек 6 нет в базе данных
Трек 7 нет в базе данных
Трек 8 нет в базе данных
Трек 9 нет в базе данных
Трек 10 нет в базе данных
Трек 11 нет в базе данных
Трек 12 нет в базе данных
Трек 13 нет в базе данных
Трек 14 нет в базе данных
Трек 15 нет в базе данных
Трек 16 нет в базе данных
Трек 17 нет в базе данных
Трек 18 нет в базе данных
Трек 19 нет в базе данных

Ни одного трека нет в базе AccurateRip

Конец отчёта


Album
Demos


Last edited by thorbeorn on 22 Jun 2015, edited 2 times in total.

Top
 Profile  
 
 
PostPosted: 22 Jun 2015 
Доктор энтомологии
User avatar
Joined: 22 Jan 2009
Posts: 9851
Lоcаtion: Даугавпилс
Age: 44
Name: Алексей
:true: Спасибо огромное, демки утягиваю :lob: :dance:


Top
 Profile  
 
 
PostPosted: 22 Jun 2015 
Хиппей (support team)
User avatar
Joined: 30 Jul 2007
Posts: 114095
Lоcаtion: Киев (Kyiv, UA)
Age: 46
Name: Andrey
:thanx:

mirror:

CD 1 - iFolder l Narod l M-Cloud
CD 2 - iFolder l Narod l M-Cloud

_________________


Top
 Profile E-mail  
 
 
PostPosted: 22 Jun 2015 
Хиппей (support team)
User avatar
Joined: 30 Jul 2007
Posts: 114095
Lоcаtion: Киев (Kyiv, UA)
Age: 46
Name: Andrey
Эх, какой всё же офигенный альбом. Особенно как для 1986 года :lob: :lob: :lob:

_________________


Top
 Profile E-mail  
 
 
PostPosted: 22 Jun 2015 
Генеральный thrasher
User avatar
Joined: 03 Oct 2008
Posts: 3720
Lоcаtion: Ханты-Мансийский АО
Age: 44
Name: Сергей
Андрюх,ну это ж классика! :benya:


Top
 Profile  
 
 
PostPosted: 22 Jun 2015 
Хиппей (support team)
User avatar
Joined: 30 Jul 2007
Posts: 114095
Lоcаtion: Киев (Kyiv, UA)
Age: 46
Name: Andrey
thorbeorn wrote:
08. Wasted Time 06:29

Ах, какой же очаровательно позитивный мрак :meloman: :meloman: :meloman:

_________________


Top
 Profile E-mail  
 
 
PostPosted: 22 Jun 2015 
Хиппей (support team)
User avatar
Joined: 30 Jul 2007
Posts: 114095
Lоcаtion: Киев (Kyiv, UA)
Age: 46
Name: Andrey
Андрюх,ну это ж классика! :benya:

Серёг, а у меня спустя 20-25 лет как раз очень меняется отношение к музыке. Так что это да, действительно и классика и культ :lob: :lob: :lob:
Спасибо за предоставленные часы кайфа :thanx:

_________________


Top
 Profile E-mail  
 
 
PostPosted: 22 Jun 2015 
Генеральный thrasher
User avatar
Joined: 03 Oct 2008
Posts: 3720
Lоcаtion: Ханты-Мансийский АО
Age: 44
Name: Сергей
Просто тогда и трэш был круче и вода чище....Ну и мы моложе. :(


Top
 Profile  
 
 
PostPosted: 22 Jun 2015 
Прокъмитолист
User avatar
Joined: 12 Aug 2007
Posts: 6593
Lоcаtion: Санктъ-Петербуркъ
Age: 51
Name: Олекъ
:thanx:

_________________
прокъметол - это музыко, от которово есть прок (ы)


Top
 Profile  
 
 
PostPosted: 22 Jun 2015 
Хиппей (support team)
User avatar
Joined: 30 Jul 2007
Posts: 114095
Lоcаtion: Киев (Kyiv, UA)
Age: 46
Name: Andrey
Просто тогда и трэш был круче и вода чище....Ну и мы моложе. :(

Вот как раз не всё было таким, как ты сказал :pardon:

_________________


Top
 Profile E-mail  
 
 
PostPosted: 22 Jun 2015 
Хиппей (support team)
User avatar
Joined: 30 Jul 2007
Posts: 114095
Lоcаtion: Киев (Kyiv, UA)
Age: 46
Name: Andrey
О как. А Каталепсю эту то я и не слушал. Красота ваще :meloman:
Особенно 4 финальные песни :dance:

_________________


Top
 Profile E-mail  
 
 
PostPosted: 22 Jun 2015 
Генеральный thrasher
User avatar
Joined: 03 Oct 2008
Posts: 3720
Lоcаtion: Ханты-Мансийский АО
Age: 44
Name: Сергей
Андрюха,а это кто писал?

viewtopic.php?f=74&t=3818&hilit=detente


Top
 Profile  
 
 
PostPosted: 22 Jun 2015 
Хиппей (support team)
User avatar
Joined: 30 Jul 2007
Posts: 114095
Lоcаtion: Киев (Kyiv, UA)
Age: 46
Name: Andrey
Андрюха,а это кто писал?

viewtopic.php?f=74&t=3818&hilit=detente

О, ништяк :lob: А я то думаю, что ж такие песенки знакомые-то :meloman:

_________________


Top
 Profile E-mail  
 
 
PostPosted: 23 Jun 2015 
консэрваторъ
User avatar
Joined: 11 Aug 2007
Posts: 17171
Lоcаtion: Псков
Age: 45
Name: Сергей
Простите, мужики, но по вокалу здесь какая-то бабка на самогон сбивается с бомжами на площади трёх вокзалов... Музыка унылый примитив... :(
Серёга, за проделанную работу огромнейшая благодарность!.. :lob:

_________________
THRASH 'EM ALL


Top
 Profile E-mail  
 
 
PostPosted: 26 Jun 2015 
ТрэшЭрос
User avatar
Joined: 18 Jul 2011
Posts: 2304
Lоcаtion: Гулькевичи
Age: 44
Name: Александр
:thanx: :true:

_________________
Thrash no trash!!!


Top
 Profile E-mail  
 
 
PostPosted: 06 Jul 2015 
Alive Again
User avatar
Joined: 17 Dec 2008
Posts: 4747
Lоcаtion: Курск Воронеж Оскол
Age: 45
Name: Дмитрий
:thanx: , интересно послушать чем так АСаныч восхищается :crazy:


Top
 Profile E-mail  
 
 
PostPosted: 06 Jul 2015 
Хиппей (support team)
User avatar
Joined: 30 Jul 2007
Posts: 114095
Lоcаtion: Киев (Kyiv, UA)
Age: 46
Name: Andrey
Дим, как ни странно, музыкой, и прежде всего - вокалисткой. Её голосом :meloman: :lob: :lob: :lob:

_________________


Top
 Profile E-mail  
 
 
PostPosted: 06 Jul 2015 
Доктор энтомологии
User avatar
Joined: 22 Jan 2009
Posts: 9851
Lоcаtion: Даугавпилс
Age: 44
Name: Алексей
Замечательная музыка. И в школьные времена их любил и сейчас с большим удовольствием порой слушаю. Обычно у меня сразу ассоциативный ряд включается с Sacrilege английскими, ведь и там тетка пела и остросоциальная лирика была тож исполняемая напористо-грубо-припанковано, только у Сакрилижев звучок такого почти околограйндово-бульдозерный :oops:
Еще раз большое спасибо за второй дисочек, не слышал старые записи их и Каталепси :thanx:


Top
 Profile  
 
 
PostPosted: 06 Jul 2015 
Генеральный thrasher
User avatar
Joined: 03 Oct 2008
Posts: 3720
Lоcаtion: Ханты-Мансийский АО
Age: 44
Name: Сергей
А Серёга splatty раскритиковал... :(


Top
 Profile  
 
 
PostPosted: 06 Jul 2015 
консэрваторъ
User avatar
Joined: 11 Aug 2007
Posts: 17171
Lоcаtion: Псков
Age: 45
Name: Сергей
Да я, блин, не принцип-регулятор... Не слушайте меня... :drink:

_________________
THRASH 'EM ALL


Top
 Profile E-mail  
 
Display posts from previous:  Sort by  
Post new topic Reply to topic  [ 31 posts ]  Go to page 1, 2  Next

All times are UTC + 3 hours


Who is online

Users browsing this forum: No registered users and 2 guests


You cannot post new topics in this forum
You cannot reply to topics in this forum
You cannot edit your posts in this forum
You cannot delete your posts in this forum
You cannot post attachments in this forum

Search for:
Яндекс.Метрика
Powered by phpBB © 2000, 2002, 2005, 2007 phpBB Group