\m/ 80's metal \m/

Информационно-аналитический форум "80 см пыли" (In Search We Trust) "У нас никто никуда не спешит"
Me For You - http://me-4u.com
It is currently 20 Sep 2018

All times are UTC + 3 hours

Spoiler
Chat - temporary registration for foreign users (please leave your application here)







Post new topic Reply to topic  [ 11 posts ] 
Author Message
 
PostPosted: 22 Apr 2015 
5-speed satisfactor
User avatar
Joined: 16 Feb 2009
Posts: 3554
Lоcаtion: New York, USA
Age: 40
Name: Leonid
Рипнул лет 5 назад. Сейчас продал. Чтоб восстановить образ, надо отпилить 11790 семпла от начала первой песенки, ну и склеить все треки в 1. Редчайшее демо. Прислал мне его вроде ни кто иной как сам Миша Гаага в 94ом.

Группа: Dead Horse
Год: 1994
Жанр: Southern Thrash Metal/Crossover/Country
Страна: США
Штат: Техас
Город: Хьюстон
Альбом: Feed Me

Состав:
Michael Haaga - Vocals, Guitars, Banjo
Greg Martin - Guitars, Vocals
Ronnie Guyote - Drums, Vocals (backing)
Allen Price - ass, Vocals (backing), Acoustics

Список песен:
1. Every God for Himself 04:46
2. Eaten by the Grave 02:34
3. Something Nothing 03:28
4. My Dog the Prophet 02:13
5. Chiggers 02:02

Ссылка на группу:
http://www.metal-archives.com/bands/Dead_Horse/6056

Ссылка на альбом:
http://www.metal-archives.com/albums/De ... d_Me/16496

У вас 2 недели:

http://we.tl/uwim2pb2Pa

_________________
Death rules! Metal to all who oppose!


Top
 Profile  
 
 
PostPosted: 22 Apr 2015 
Хиппей (support team)
User avatar
Joined: 30 Jul 2007
Posts: 106329
Lоcаtion: Киев (Kyiv, UA)
Age: 45
Name: Andrey
:thanx:

Dead Horse - 1994 - Feed Me (single) [flacs]

mirror: iFolder l M-Cloud l Narod

log
Exact Audio Copy V0.99 prebeta 5 from 4. May 2009

EAC extraction logfile from 27. September 2010, 1:26

Dead Horse / Feed Me

Used drive : PLEXTOR DVDR PX-760A Adapter: 1 ID: 0

Read mode : Secure
Utilize accurate stream : Yes
Defeat audio cache : Yes
Make use of C2 pointers : Yes

Read offset correction : 30
Overread into Lead-In and Lead-Out : Yes
Fill up missing offset samples with silence : Yes
Delete leading and trailing silent blocks : No
Null samples used in CRC calculations : Yes
Used interface : Installed external ASPI interface

Used output format : Internal WAV Routines
Sample format : 44.100 Hz; 16 Bit; Stereo


TOC of the extracted CD

Track | Start | Length | Start sector | End sector
---------------------------------------------------------
1 | 0:00.32 | 4:46.43 | 32 | 21524
2 | 4:47.00 | 2:33.67 | 21525 | 33066
3 | 7:20.67 | 3:28.00 | 33067 | 48666
4 | 10:48.67 | 2:12.70 | 48667 | 58636
5 | 13:01.62 | 2:02.50 | 58637 | 67836


Range status and errors

Selected range

Filename N:\ToFLAC\Dead Horse\Feed Me\Dead Horse - Feed Me.wav

Peak level 100.0 %
Range quality 100.0 %
Copy CRC F0B51ABD
Copy OK

No errors occurred

End of status report

------------------------------------------------------------

Exact Audio Copy V0.99 prebeta 5 from 4. May 2009

EAC extraction logfile from 26. November 2014, 13:36

Dead Horse / Feed Me

Used drive : PLEXTOR DVDR PX-760A Adapter: 1 ID: 0

Read mode : Secure
Utilize accurate stream : Yes
Defeat audio cache : Yes
Make use of C2 pointers : No

Read offset correction : -11760
Overread into Lead-In and Lead-Out : Yes
Fill up missing offset samples with silence : Yes
Delete leading and trailing silent blocks : No
Null samples used in CRC calculations : Yes
Used interface : Installed external ASPI interface
Gap handling : Appended to next track

Used output format : Internal WAV Routines
Sample format : 44.100 Hz; 16 Bit; Stereo


TOC of the extracted CD

Track | Start | Length | Start sector | End sector
---------------------------------------------------------
1 | 0:00.32 | 4:46.43 | 32 | 21524
2 | 4:47.00 | 2:33.67 | 21525 | 33066
3 | 7:20.67 | 3:28.00 | 33067 | 48666
4 | 10:48.67 | 2:12.70 | 48667 | 58636
5 | 13:01.62 | 2:02.50 | 58637 | 67836


Track 1

Filename P:\FLAC\Dead Horse\Feed Me\01. Every God For Himself.wav

Pre-gap length 0:00:02.32

Missing samples
Peak level 100.0 %
Track quality 100.0 %
Copy CRC CE29D005
Copy finished

There were errors

End of status report

Image

Image

Image

_________________


Top
 Profile E-mail  
 
 
PostPosted: 22 Apr 2015 
Персональный статус
User avatar
Joined: 11 May 2011
Posts: 416
Lоcаtion: Omsk
Age: 28
Name: Alexander
И тут пасибке :thanx:

_________________
Enigma, unholy, ungodly, commander of the regeneration
Insidious and caught, implored by disgrace
Inhumation... The burial of man
Confession... Unify all evil


Top
 Profile E-mail  
 
 
PostPosted: 22 Apr 2015 
5-speed satisfactor
User avatar
Joined: 16 Feb 2009
Posts: 3554
Lоcаtion: New York, USA
Age: 40
Name: Leonid
Нема за шо. Здесь тока сначала обрезать. Конец нормальный, необрезанный.

_________________
Death rules! Metal to all who oppose!


Top
 Profile  
 
 
PostPosted: 23 Apr 2015 
HAMMER
User avatar
Joined: 16 May 2009
Posts: 5363
Lоcаtion: Тверь
Age: 45
Name: Александр
metaleonid wrote:
Конец нормальный, необрезанный.


В цитаты дня. :benya:


Top
 Profile E-mail  
 
 
PostPosted: 23 Apr 2015 
Хиппей (support team)
User avatar
Joined: 30 Jul 2007
Posts: 106329
Lоcаtion: Киев (Kyiv, UA)
Age: 45
Name: Andrey
Забрато :crazy: :thanx:
Хоть уже и было подобное =)

_________________


Top
 Profile E-mail  
 
 
PostPosted: 23 Apr 2015 
5-speed satisfactor
User avatar
Joined: 16 Feb 2009
Posts: 3554
Lоcаtion: New York, USA
Age: 40
Name: Leonid
Это что, здесь серьезно есть такая тема, цитаты дня?

_________________
Death rules! Metal to all who oppose!


Top
 Profile  
 
 
PostPosted: 23 Apr 2015 
Хиппей (support team)
User avatar
Joined: 30 Jul 2007
Posts: 106329
Lоcаtion: Киев (Kyiv, UA)
Age: 45
Name: Andrey
Это что, здесь серьезно есть такая тема, цитаты дня?

Дык :arrow: viewtopic.php?f=6&t=2548

_________________


Top
 Profile E-mail  
 
 
PostPosted: 23 Apr 2015 
Хиппей (support team)
User avatar
Joined: 30 Jul 2007
Posts: 106329
Lоcаtion: Киев (Kyiv, UA)
Age: 45
Name: Andrey
metaleonid wrote:
Группа: Dead Horse
Год: 1994
Жанр: Southern Thrash Metal/Crossover/Country

Вот, не знаю точных причин, но сингл этот оченно мне понравился :lob: :lob: :lob:
Харкорный кроссовер смачно сдобренный южнороккором. Лепотища :true:

А может всё дело в количестве трэков? Их всего 5, но такие няшечки и усипусечки :meloman:

7+/10


Лёне и Гаге спасибо за музыку и рип :thanx:

_________________


Top
 Profile E-mail  
 
 
PostPosted: 23 Apr 2015 
Хиппей (support team)
User avatar
Joined: 30 Jul 2007
Posts: 106329
Lоcаtion: Киев (Kyiv, UA)
Age: 45
Name: Andrey


Эх, красотища ведь :meloman: :meloman: :meloman:

_________________


Top
 Profile E-mail  
 
 
PostPosted: 24 Apr 2015 
5-speed satisfactor
User avatar
Joined: 16 Feb 2009
Posts: 3554
Lоcаtion: New York, USA
Age: 40
Name: Leonid
A мне очень Chiggers нравится. Последний трек. Вроде б как country music, a ведь тру speed metal. Короче speed metal unplugged.

_________________
Death rules! Metal to all who oppose!


Top
 Profile  
 
Display posts from previous:  Sort by  
Post new topic Reply to topic  [ 11 posts ] 

All times are UTC + 3 hours


Who is online

Users browsing this forum: No registered users and 1 guest


You cannot post new topics in this forum
You cannot reply to topics in this forum
You cannot edit your posts in this forum
You cannot delete your posts in this forum
You cannot post attachments in this forum

Search for:
Яндекс.Метрика
Powered by phpBB © 2000, 2002, 2005, 2007 phpBB Group