\m/ 80's metal \m/

Информационно-аналитический форум "80 см пыли" (In Search We Trust) "У нас никто никуда не спешит"
Me For You - http://me-4u.com
It is currently 18 Jul 2019

All times are UTC + 3 hours

Spoiler
Chat - temporary registration for foreign users (please leave your application here)







Post new topic Reply to topic  [ 32 posts ]  Go to page 1, 2  Next
Author Message
 
PostPosted: 12 Dec 2014 
Генеральный thrasher
User avatar
Joined: 03 Oct 2008
Posts: 3714
Lоcаtion: Ханты-Мансийский АО
Age: 44
Name: Сергей
Image

Year:1988 (2010 Remastered)
Style:Thrash Metal
Country:Italy
Audio:Flac+Cue+Log+Scans
Size:394Mb
Source:my CD
Label:New LM Records

Line-Up:
Germano Minuti - bass
Andrea Vetturi - drums
Marco Vetturi - guitars
Giancarlo "Jun" Carminati - vocals, guitars

Tracklist:
01. Lookin' For Troubles 03:05
02. Obsession (Part I) 01:11
03. Don't Search For The Answer 08:18
04. Human Vivisection 07:03
05. Nuclear Solution 04:59
06. Captive Of My Vice 04:05
07. Lost And Lonely 03:24
08. Trooper Of Death 06:02
09. Captive Of My Vice (demo version) 04:03
10. Trooper Of Death (demo version) 06:25
11. Brainless (previously unreleased) 04:39

"Cue"
REM GENRE "Thrash Metal"
REM DATE 1988
REM DISCID 940C950B
REM COMMENT "ExactAudioCopy v0.99pb5"
PERFORMER "Drunkards"
TITLE "Drunkards"
FILE "Drunkards - Drunkards.flac" WAVE
TRACK 01 AUDIO
TITLE "Lookin' For Troubles"
PERFORMER "Drunkards"
INDEX 01 00:00:00
TRACK 02 AUDIO
TITLE "Obsession (Part 1)"
PERFORMER "Drunkards"
INDEX 00 03:05:65
INDEX 01 03:07:65
TRACK 03 AUDIO
TITLE "Don't Search For The Answer"
PERFORMER "Drunkards"
INDEX 00 04:19:59
INDEX 01 04:21:59
TRACK 04 AUDIO
TITLE "Human Vivisection"
PERFORMER "Drunkards"
INDEX 00 12:40:46
INDEX 01 12:42:46
TRACK 05 AUDIO
TITLE "Nuclear Solution"
PERFORMER "Drunkards"
INDEX 00 19:46:28
INDEX 01 19:48:28
TRACK 06 AUDIO
TITLE "Captive Of My Vice"
PERFORMER "Drunkards"
INDEX 00 24:48:05
INDEX 01 24:50:05
TRACK 07 AUDIO
TITLE "Lost And Lonely"
PERFORMER "Drunkards"
INDEX 00 28:56:01
INDEX 01 28:58:01
TRACK 08 AUDIO
TITLE "Trooper Of Death"
PERFORMER "Drunkards"
INDEX 00 32:22:22
INDEX 01 32:24:22
TRACK 09 AUDIO
TITLE "Captive Of My Vice (demo version)"
PERFORMER "Drunkards"
INDEX 00 38:26:37
INDEX 01 38:28:37
TRACK 10 AUDIO
TITLE "Trooper Of Death (demo version)"
PERFORMER "Drunkards"
INDEX 00 42:31:60
INDEX 01 42:33:60
TRACK 11 AUDIO
TITLE "Brainless (previously unreleased)"
PERFORMER "Drunkards"
INDEX 00 48:59:46
INDEX 01 49:01:46

"Log"
Exact Audio Copy V0.99 prebeta 5 from 4. May 2009

Отчёт EAC об извлечении, выполненном 5. мая 2014, 21:22

Drunkards / Drunkards

Дисковод: MATSHITADVD-RAM UJ8A0AS Adapter: 0 ID: 1

Режим чтения : Достоверность
Использование точного потока : Да
Отключение кэша аудио : Да
Использование указателей C2 : Нет

Коррекция смещения при чтении : 102
Способность читать области Lead-in и Lead-out : Нет
Заполнение пропущенных сэмплов тишиной : Да
Удаление блоков с тишиной в начале и конце : Нет
При вычислениях CRC использовались нулевые сэмплы : Да
Интерфейс : Встроенный Win32-интерфейс для Win NT/2000

Выходной формат : Пользовательский кодировщик
Выбранный битрейт : 1024 kBit/s
Качество : Высокий
Добавление ID3-тэга : Нет
Утилита сжатия : C:\Program Files\Exact Audio Copy\FLAC\FLAC.EXE
Дополнительные параметры : -6 -V -T "ARTIST=%a" -T "TITLE=%t" -T "ALBUM=%g" -T "DATE=%y" -T "TRACKNUMBER=%n" -T "GENRE=%m" -T "COMMENT=%e" %s -o %d


TOC извлечённого CD

Трек | Старт | Длительность | Начальный сектор | Конечный сектор
---------------------------------------------------------------------
1 | 0:00.00 | 3:07.65 | 0 | 14089
2 | 3:07.65 | 1:13.69 | 14090 | 19633
3 | 4:21.59 | 8:20.62 | 19634 | 57195
4 | 12:42.46 | 7:05.57 | 57196 | 89127
5 | 19:48.28 | 5:01.52 | 89128 | 111754
6 | 24:50.05 | 4:07.71 | 111755 | 130350
7 | 28:58.01 | 3:26.21 | 130351 | 145821
8 | 32:24.22 | 6:04.15 | 145822 | 173136
9 | 38:28.37 | 4:05.23 | 173137 | 191534
10 | 42:33.60 | 6:27.61 | 191535 | 220620
11 | 49:01.46 | 4:39.41 | 220621 | 241586


Характеристики диапазона извлечения и сообщения об ошибках

Выбранный диапазон

Имя файла C:\Users\эксперт\Music\Drunkards - Drunkards.wav

Пиковый уровень 100.0 %
Качество диапазона 100.0 %
CRC копии 4EE82D24
Копирование... OK

Ошибок не произошло


AccurateRip: сводка

Трек 1 нет в базе данных
Трек 2 нет в базе данных
Трек 3 нет в базе данных
Трек 4 нет в базе данных
Трек 5 нет в базе данных
Трек 6 нет в базе данных
Трек 7 нет в базе данных
Трек 8 нет в базе данных
Трек 9 нет в базе данных
Трек 10 нет в базе данных
Трек 11 нет в базе данных

Ни одного трека нет в базе AccurateRip

Конец отчёта


Drunkards

Image

Year:2009 (recorded in 1989)
Style:Thrash Metal
Country:Italy
Audio:Flac+Cue+Log+Scans
Size:458Mb
Source:my CD
Label:New LM Records

Line-Up:
Germano Minuti - bass
Andrea Vetturi - drums
Marco Vetturi - guitars
Giancarlo "Jun" Carminati - vocals, guitars

Tracklist:
01. 44151 06:14
02. Say Goodbye 03:51
03. Gonna Do It My Way 06:475
04. Ummo Weh Dinnah 00:47
05. Disarray 03:55
06. A Woman Like You 04:49
07. Obsession (Part II) 02:17
08. The Absurd Tale of God 04:07
09. Tonight 07:34
10. I Need a Woman 00:42
11. Bloody Bones (Bonus track) 06:39
12. Don't You Play with the Pawns of Hell (Bonus track) 03:53
13. Pirana (Bonus track) 02:52
14. Metal Fury Broke Free (Bonus track) 05:08
15. Final Revenge (Bonus track) 03:38

"Cue"
REM GENRE "Thrash Metal"
REM DATE 2009
REM DISCID F30EF20F
REM COMMENT "ExactAudioCopy v0.99pb5"
PERFORMER "Drunkards"
TITLE "No Trace Of Sanity"
FILE "Drunkards - No Trace Of Sanity.flac" WAVE
TRACK 01 AUDIO
TITLE "44151"
PERFORMER "Drunkards"
INDEX 01 00:00:00
TRACK 02 AUDIO
TITLE "Say Goodbye"
PERFORMER "Drunkards"
INDEX 00 06:14:10
INDEX 01 06:16:10
TRACK 03 AUDIO
TITLE "Gonna Do It My Way"
PERFORMER "Drunkards"
INDEX 00 10:07:46
INDEX 01 10:09:46
TRACK 04 AUDIO
TITLE "Ummo Weh Dinnah"
PERFORMER "Drunkards"
INDEX 00 16:55:43
INDEX 01 16:57:43
TRACK 05 AUDIO
TITLE "Disarray"
PERFORMER "Drunkards"
INDEX 00 17:45:08
INDEX 01 17:47:08
TRACK 06 AUDIO
TITLE "A Woman Like You"
PERFORMER "Drunkards"
INDEX 00 21:42:49
INDEX 01 21:44:49
TRACK 07 AUDIO
TITLE "Obsession (Part II)"
PERFORMER "Drunkards"
INDEX 00 26:34:34
INDEX 01 26:36:34
TRACK 08 AUDIO
TITLE "The Absurd Tale of God"
PERFORMER "Drunkards"
INDEX 00 28:54:22
INDEX 01 28:56:22
TRACK 09 AUDIO
TITLE "Tonight"
PERFORMER "Drunkards"
INDEX 00 33:03:28
INDEX 01 33:05:28
TRACK 10 AUDIO
TITLE "I Need a Woman"
PERFORMER "Drunkards"
INDEX 00 40:39:32
INDEX 01 40:41:32
TRACK 11 AUDIO
TITLE "Bloody Bones (Bonus track)"
PERFORMER "Drunkards"
INDEX 00 41:23:34
INDEX 01 41:25:34
TRACK 12 AUDIO
TITLE "Don't You Play with the Pawns of Hell (Bonus track)"
PERFORMER "Drunkards"
INDEX 00 48:05:14
INDEX 01 48:07:14
TRACK 13 AUDIO
TITLE "Pirana (Bonus track)"
PERFORMER "Drunkards"
INDEX 00 52:00:53
INDEX 01 52:02:53
TRACK 14 AUDIO
TITLE "Metal Fury Broke Free (Bonus track)"
PERFORMER "Drunkards"
INDEX 00 54:54:53
INDEX 01 54:56:53
TRACK 15 AUDIO
TITLE "Final Revenge (Bonus track)"
PERFORMER "Drunkards"
INDEX 00 60:05:50
INDEX 01 60:07:50

"Log"
Exact Audio Copy V0.99 prebeta 5 from 4. May 2009

Отчёт EAC об извлечении, выполненном 11. декабря 2014, 17:21

Drunkards / No Trace Of Sanity

Дисковод: MATSHITADVD-RAM UJ8A0AS Adapter: 0 ID: 1

Режим чтения : Достоверность
Использование точного потока : Да
Отключение кэша аудио : Да
Использование указателей C2 : Нет

Коррекция смещения при чтении : 102
Способность читать области Lead-in и Lead-out : Нет
Заполнение пропущенных сэмплов тишиной : Да
Удаление блоков с тишиной в начале и конце : Нет
При вычислениях CRC использовались нулевые сэмплы : Да
Интерфейс : Встроенный Win32-интерфейс для Win NT/2000

Выходной формат : Пользовательский кодировщик
Выбранный битрейт : 1024 kBit/s
Качество : Высокий
Добавление ID3-тэга : Нет
Утилита сжатия : C:\Program Files\Exact Audio Copy\FLAC\FLAC.EXE
Дополнительные параметры : -6 -V -T "ARTIST=%a" -T "TITLE=%t" -T "ALBUM=%g" -T "DATE=%y" -T "TRACKNUMBER=%n" -T "GENRE=%m" -T "COMMENT=%e" %s -o %d


TOC извлечённого CD

Трек | Старт | Длительность | Начальный сектор | Конечный сектор
---------------------------------------------------------------------
1 | 0:00.00 | 6:16.10 | 0 | 28209
2 | 6:16.10 | 3:53.36 | 28210 | 45720
3 | 10:09.46 | 6:47.72 | 45721 | 76317
4 | 16:57.43 | 0:49.40 | 76318 | 80032
5 | 17:47.08 | 3:57.41 | 80033 | 97848
6 | 21:44.49 | 4:51.60 | 97849 | 119733
7 | 26:36.34 | 2:19.63 | 119734 | 130221
8 | 28:56.22 | 4:09.06 | 130222 | 148902
9 | 33:05.28 | 7:36.04 | 148903 | 183106
10 | 40:41.32 | 0:44.02 | 183107 | 186408
11 | 41:25.34 | 6:41.55 | 186409 | 216538
12 | 48:07.14 | 3:55.39 | 216539 | 234202
13 | 52:02.53 | 2:54.00 | 234203 | 247252
14 | 54:56.53 | 5:10.72 | 247253 | 270574
15 | 60:07.50 | 3:38.34 | 270575 | 286958


Характеристики диапазона извлечения и сообщения об ошибках

Выбранный диапазон

Имя файла C:\Users\эксперт\Music\Drunkards - No Trace Of Sanity.wav

Пиковый уровень 100.0 %
Качество диапазона 100.0 %
CRC копии B00AAB64
Копирование... OK

Ошибок не произошло


AccurateRip: сводка

Трек 1 точность не определена (достоверность 1) [79BA5F34], AccurateRip вернул [F52C7080]
Трек 2 точность не определена (достоверность 1) [FA1313F9], AccurateRip вернул [9BC33BF6]
Трек 3 точность не определена (достоверность 1) [AC8EA687], AccurateRip вернул [F47D448A]
Трек 4 точность не определена (достоверность 1) [B1104C26], AccurateRip вернул [C39366D3]
Трек 5 точность не определена (достоверность 1) [FC21528E], AccurateRip вернул [DF0FAE49]
Трек 6 точность не определена (достоверность 1) [1B8F99E6], AccurateRip вернул [16926279]
Трек 7 точность не определена (достоверность 1) [303C4518], AccurateRip вернул [E7661057]
Трек 8 точность не определена (достоверность 1) [E2FD4CE0], AccurateRip вернул [021F4067]
Трек 9 точность не определена (достоверность 1) [8B0272CE], AccurateRip вернул [E5458E2B]
Трек 10 точность не определена (достоверность 1) [D627363B], AccurateRip вернул [BFEC868D]
Трек 11 точность не определена (достоверность 1) [5166FE69], AccurateRip вернул [AFB5056F]
Трек 12 точность не определена (достоверность 1) [8BFBEE56], AccurateRip вернул [16CAA651]
Трек 13 точность не определена (достоверность 1) [BE125A97], AccurateRip вернул [ADA80F2A]
Трек 14 точность не определена (достоверность 1) [E52B771D], AccurateRip вернул [6F6EAE03]
Трек 15 точность не определена (достоверность 1) [18A9E6A7], AccurateRip вернул [9816EF39]

Ни один трек не прошёл проверки на точность
В вашей базе может быть иной вариант штамповки диска

Конец отчёта



No Trace Of Sanity


Last edited by thorbeorn on 12 Dec 2014, edited 1 time in total.

Top
 Profile  
 
 
PostPosted: 12 Dec 2014 
Хиппей (support team)
User avatar
Joined: 30 Jul 2007
Posts: 113524
Lоcаtion: Киев (Kyiv, UA)
Age: 46
Name: Andrey
:thanx:

Image Image Image

Image Image Image

mirror: Narod l M-Cloud


О, еще одна новая фишка на Яди:
Quote:
Cсылка просмотрена: один раз
:dance:

_________________


Top
 Profile E-mail  
 
 
PostPosted: 12 Dec 2014 
Генеральный thrasher
User avatar
Joined: 03 Oct 2008
Posts: 3714
Lоcаtion: Ханты-Мансийский АО
Age: 44
Name: Сергей
Эти итальянские пьяницы явно держали равнение на Металлику.На "Trace Of Sanity" в качестве бонусов добиты трэки с демки "Lethal to Weak Ones" 1987 года.


Top
 Profile  
 
 
PostPosted: 12 Dec 2014 
Прокъмитолист
User avatar
Joined: 12 Aug 2007
Posts: 6574
Lоcаtion: Санктъ-Петербуркъ
Age: 51
Name: Олекъ
спасибо! :thanx:

_________________
прокъметол - это музыко, от которово есть прок (ы)


Top
 Profile  
 
 
PostPosted: 12 Dec 2014 
Работнечег
User avatar
Joined: 28 Aug 2007
Posts: 5919
Lоcаtion: г. Москва
Age: 30
Name: Дима
:thanx:


Top
 Profile E-mail  
 
 
PostPosted: 12 Dec 2014 
Анатолий
User avatar
Joined: 18 Oct 2008
Posts: 3505
Lоcаtion: Армавир
Age: 42
Name: Анатолий
Спасибо большое, Сергей! :true: :thanx:

Почти всё собралось что было в Death City. ( если я ничего не путаю конечно... сейчас нет под рукой для сверки ).


Top
 Profile E-mail  
 
 
PostPosted: 12 Dec 2014 
Генеральный thrasher
User avatar
Joined: 03 Oct 2008
Posts: 3714
Lоcаtion: Ханты-Мансийский АО
Age: 44
Name: Сергей
Толь,ты по журналу что-ли собираешь релизы? :benya:


Top
 Profile  
 
 
PostPosted: 12 Dec 2014 
Хиппей (support team)
User avatar
Joined: 30 Jul 2007
Posts: 113524
Lоcаtion: Киев (Kyiv, UA)
Age: 46
Name: Andrey
:crazy:

_________________


Top
 Profile E-mail  
 
 
PostPosted: 14 Dec 2014 
Анатолий
User avatar
Joined: 18 Oct 2008
Posts: 3505
Lоcаtion: Армавир
Age: 42
Name: Анатолий
Серёж, ну есть у меня такая манька... Это же как прикоснуться к чему-то такому, к чему в своё время возможности прикоснуться не было. Как компенсация за терзания юности... Как я завидовал тем людям, которые писали рецензии на эти альбомы... что в Death City, что в Thrash энциклопедии Бочарова. Тогда не было возможности, так хоть сейчас наверстаю. Меня многие близкие и родные отчитывают... что мол, я живу в прошлом... ну что поделать... вот такой вот, я антиквариат...


Top
 Profile E-mail  
 
 
PostPosted: 14 Dec 2014 
Генеральный thrasher
User avatar
Joined: 03 Oct 2008
Posts: 3714
Lоcаtion: Ханты-Мансийский АО
Age: 44
Name: Сергей
Серёж, ну есть у меня такая манька... Это же как прикоснуться к чему-то такому, к чему в своё время возможности прикоснуться не было. Как компенсация за терзания юности... Как я завидовал тем людям, которые писали рецензии на эти альбомы... что в Death City, что в Thrash энциклопедии Бочарова. Тогда не было возможности, так хоть сейчас наверстаю. Меня многие близкие и родные отчитывают... что мол, я живу в прошлом... ну что поделать... вот такой вот, я антиквариат...


Трэш-энциклопедия Олежки Бочарова была и для меня отличным пособием в музыкальном развитии.Вроде как все коллективы,фигурировавшие там,прослушаны за эти годы.


Top
 Profile  
 
 
PostPosted: 14 Dec 2014 
Хиппей (support team)
User avatar
Joined: 30 Jul 2007
Posts: 113524
Lоcаtion: Киев (Kyiv, UA)
Age: 46
Name: Andrey
thorbeorn wrote:
Эти итальянские пьяницы явно держали равнение на Металлику

О, отличная музыка, ура! :thanx: :true: :true:
Только не на Металлику, а скорее на Testament и американский трэш-хардкорово-кроссоверные группы по типу D.R.I. :meloman:
Вот только саунд здесь (явно после ремастера? :vic: ) такой выхолощенный, как будто слушаешь Anthrax-87-90 годов.
Это как бы и неплохо, но подобный высококачественный звук для такой стилистики не совсем присущ и немного создается впечатления некоего обмана =) :vic:
Но Толя точно будет доволен :meloman:

6+/10



зы. Кстати, на Ютуб залита оригинальная запись, безо всяких ремастерований.

_________________


Top
 Profile E-mail  
 
 
PostPosted: 14 Dec 2014 
Хиппей (support team)
User avatar
Joined: 30 Jul 2007
Posts: 113524
Lоcаtion: Киев (Kyiv, UA)
Age: 46
Name: Andrey
Да, на ранних демках группы не удивляйтесь, но можно услышать и чисто паверные вещи и... балладки :meloman:

_________________


Top
 Profile E-mail  
 
 
PostPosted: 14 Dec 2014 
Генеральный thrasher
User avatar
Joined: 03 Oct 2008
Posts: 3714
Lоcаtion: Ханты-Мансийский АО
Age: 44
Name: Сергей
Андрюх,ты думаешь до ремастера лучше звук был?Не думаю,что итальянцы могли нормально записывать в то время.Ну что имеем то имеем! :oops:


Top
 Profile  
 
 
PostPosted: 14 Dec 2014 
Хиппей (support team)
User avatar
Joined: 30 Jul 2007
Posts: 113524
Lоcаtion: Киев (Kyiv, UA)
Age: 46
Name: Andrey
Не, Серёг, я ж и говорю, что имею честь наблюдать некий феномен :shok:
Сам сравни запись 88 года и ремастированную. Слушая новый звук альбома, ощущаешь чистый как нефть студийный сочный звук, современный. Создается впечатление, что музыканты прям сейчас записали альбом, используя новенькие инструментами и наворотами в современной же дорогой студии. Как так удалось поднять запись, я не могу понять :vic:
И вот это как раз и радует и немного огорчает.
Хотя больше радует.
По сему мнению очень хочется услышать кхм... мнение именно Анатолия - какой вариант ему понравился больше - современный, без косяков с гладким звуком или олдовый, с глуховатым звуком гитар, барабанов, и где-то там на заднем плане задвинутом вокале?
На досуге попробуйте даже среди наших пользователей тыкнуть кому-то любую ремастированную песню с этого альбома 1988 года (не называя год, естественно) и спросить - это новая группа играет под олду, или старая так звучит? Хрен точно ответят :pardon:

В общем, у меня теперь вопрос такой созрел, а есть ли в наличие еще какие-либо ремастеры этой конторы?
thorbeorn wrote:
Label: New LM Records

Явно контора курительная... :lloo:


_________________


Top
 Profile E-mail  
 
 
PostPosted: 14 Dec 2014 
Хиппей (support team)
User avatar
Joined: 30 Jul 2007
Posts: 113524
Lоcаtion: Киев (Kyiv, UA)
Age: 46
Name: Andrey
О как... http://www.discogs.com/label/59114-LM-Records

Image

_________________


Top
 Profile E-mail  
 
 
PostPosted: 14 Dec 2014 
Генеральный thrasher
User avatar
Joined: 03 Oct 2008
Posts: 3714
Lоcаtion: Ханты-Мансийский АО
Age: 44
Name: Сергей
А мы подождём,что Толя скажет.Пусть пока вкушает сей продукт!


Top
 Profile  
 
 
PostPosted: 14 Dec 2014 
Хиппей (support team)
User avatar
Joined: 30 Jul 2007
Posts: 113524
Lоcаtion: Киев (Kyiv, UA)
Age: 46
Name: Andrey
Чую, шо Толя лет через 5 что-то по альбому и звуку скажет.
И то типа: "... мдя... что-то я немного не то ожидал... эээ... " :lloo: И еще: "А может есть....ээээ.... у кого и винил ....эээ....этого альбома и залейте его, эээ.... предварительно почистив от щёлчков. Спасибо заранее..."
И забудет, молодец, подписаться на тему :dance:

_________________


Top
 Profile E-mail  
 
 
PostPosted: 14 Dec 2014 
Хиппей (support team)
User avatar
Joined: 30 Jul 2007
Posts: 113524
Lоcаtion: Киев (Kyiv, UA)
Age: 46
Name: Andrey
Scatterbrain wrote:
6+/10

После первой прослушки немного смушался, что выставил низковую оценку.
Не, норм, как раз вот такая и подойдёт.
После третьего внимательного прослушивания понимаешь, что группа ничем не выделяется особо. 3-4 эшелон мирового трэша и второй итальянского. У них там Нуклеар Дэз рулили :pardon: Или как там правильно группа называется. Толя точно помнит.

_________________


Top
 Profile E-mail  
 
 
PostPosted: 14 Dec 2014 
Хиппей (support team)
User avatar
Joined: 30 Jul 2007
Posts: 113524
Lоcаtion: Киев (Kyiv, UA)
Age: 46
Name: Andrey
Scatterbrain wrote:
Нуклеар Дэз

Вспомнил. Нуклер Симфони, всё же... http://www.metal-archives.com/bands/Nuc ... phony/1539 :lob:

_________________


Top
 Profile E-mail  
 
 
PostPosted: 14 Dec 2014 
Генеральный thrasher
User avatar
Joined: 03 Oct 2008
Posts: 3714
Lоcаtion: Ханты-Мансийский АО
Age: 44
Name: Сергей
Андрюх,а как же Alligator и Bulldozer?


Top
 Profile  
 
Display posts from previous:  Sort by  
Post new topic Reply to topic  [ 32 posts ]  Go to page 1, 2  Next

All times are UTC + 3 hours


Who is online

Users browsing this forum: No registered users and 2 guests


You cannot post new topics in this forum
You cannot reply to topics in this forum
You cannot edit your posts in this forum
You cannot delete your posts in this forum
You cannot post attachments in this forum

Search for:
Яндекс.Метрика
Powered by phpBB © 2000, 2002, 2005, 2007 phpBB Group