\m/ 80's metal \m/

Информационно-аналитический форум "80 см пыли" (In Search We Trust) "У нас никто никуда не спешит"
Me For You - http://me-4u.com
It is currently 22 Aug 2019

All times are UTC + 3 hours

Spoiler
Chat - temporary registration for foreign users (please leave your application here)







Post new topic Reply to topic  [ 16 posts ] 

Понравилось?
Yes 100%  100%  [ 2 ]
Да 0%  0%  [ 0 ]
Total votes : 2
Author Message
 
PostPosted: 25 Nov 2014 
5-speed satisfactor
User avatar
Joined: 16 Feb 2009
Posts: 3755
Lоcаtion: New York, USA
Age: 41
Name: Leonid
Рипнул 4 года назад. Сейчас продал. Чтоб восстановить образ, надо отпилить 11172 семпла с конца последней песенки, ну и склеить все треки в 1.
Тот, кто не слышал Dead Horse, или тот, кому не нравится Dead Horse, в металле ничего не понимает и вам надо наслаждаться отстоем как Ласковый Май, Modern Talking или Jon Blow Jobbi. :)

Группа: Dead Horse
Год: 1991
Жанр: Southern Thrash Metal/Crossover
Страна: США
Штат: Техас
Город: Хьюстон
Альбом: Peaceful Death And Pretty Flowers
Состав:
Michael Haaga - Vocals, Guitars
Greg Martin - Guitars, Vocals (backing)
Ronnie Guyote - Drums, Vocals (backing)
Allen (Alpo) Price - Bass, Vocals (backing)

Image

Список песен:
1. Cod Piece Face
2. Turn
3. La La Song
4. Like Asrielle
5. The Latent Stage
6. Peaceful Death
7. Eulogy
8. Snowdogs
9. The Lark Nest
10. Medulla Oblongata
11. Aplo
12. Rock Lobster (The B-52's cover)
13. Sawbone

Ссылка на группу:
http://www.metal-archives.com/bands/Dead_Horse/6056

Ссылка на альбом:
http://www.metal-archives.com/albums/De ... wers/16470

У вас 2 недели, чтоб скачать, отзеркалить и отписаться, как офигенно вам всем понравилась Dead Horse.

https://www.wetransfer.com/downloads/27 ... 611/4b0c32

log
Exact Audio Copy V0.99 prebeta 5 from 4. May 2009

EAC extraction logfile from 26. September 2010, 22:54

Dead Horse / Peaceful Death And Pretty Flowers

Used drive : PLEXTOR DVDR PX-760A Adapter: 1 ID: 0

Read mode : Secure
Utilize accurate stream : Yes
Defeat audio cache : Yes
Make use of C2 pointers : Yes

Read offset correction : 30
Overread into Lead-In and Lead-Out : Yes
Fill up missing offset samples with silence : Yes
Delete leading and trailing silent blocks : No
Null samples used in CRC calculations : Yes
Used interface : Installed external ASPI interface

Used output format : Internal WAV Routines
Sample format : 44.100 Hz; 16 Bit; Stereo


TOC of the extracted CD

Track | Start | Length | Start sector | End sector
---------------------------------------------------------
1 | 0:00.32 | 3:29.08 | 32 | 15714
2 | 3:29.40 | 2:58.30 | 15715 | 29094
3 | 6:27.70 | 2:05.02 | 29095 | 38471
4 | 8:32.72 | 3:52.70 | 38472 | 55941
5 | 12:25.67 | 3:34.65 | 55942 | 72056
6 | 16:00.57 | 4:54.70 | 72057 | 94176
7 | 20:55.52 | 2:41.68 | 94177 | 106319
8 | 23:37.45 | 4:00.45 | 106320 | 124364
9 | 27:38.15 | 4:47.32 | 124365 | 145921
10 | 32:25.47 | 3:08.38 | 145922 | 160059
11 | 35:34.10 | 2:09.67 | 160060 | 169801
12 | 37:44.02 | 3:35.13 | 169802 | 185939
13 | 41:19.15 | 0:52.07 | 185940 | 189846


Range status and errors

Selected range

Filename N:\ToFLAC\Dead Horse\Peaceful Death And Pretty Flowers\Dead Horse - Peaceful Death And Pretty Flowers.wav

Peak level 100.0 %
Range quality 100.0 %
Copy CRC D48E1FC5
Copy OK

No errors occurred

End of status report

------------------------------------------------------------

Exact Audio Copy V0.99 prebeta 5 from 4. May 2009

EAC extraction logfile from 23. November 2014, 22:16

Dead Horse / Peaceful Death And Pretty Flowers

Used drive : PLEXTOR DVDR PX-760A Adapter: 1 ID: 0

Read mode : Secure
Utilize accurate stream : Yes
Defeat audio cache : Yes
Make use of C2 pointers : No

Read offset correction : 11202
Overread into Lead-In and Lead-Out : Yes
Fill up missing offset samples with silence : Yes
Delete leading and trailing silent blocks : No
Null samples used in CRC calculations : Yes
Used interface : Installed external ASPI interface
Gap handling : Not detected, thus appended to previous track

Used output format : Internal WAV Routines
Sample format : 44.100 Hz; 16 Bit; Stereo


TOC of the extracted CD

Track | Start | Length | Start sector | End sector
---------------------------------------------------------
1 | 0:00.32 | 3:29.08 | 32 | 15714
2 | 3:29.40 | 2:58.30 | 15715 | 29094
3 | 6:27.70 | 2:05.02 | 29095 | 38471
4 | 8:32.72 | 3:52.70 | 38472 | 55941
5 | 12:25.67 | 3:34.65 | 55942 | 72056
6 | 16:00.57 | 4:54.70 | 72057 | 94176
7 | 20:55.52 | 2:41.68 | 94177 | 106319
8 | 23:37.45 | 4:00.45 | 106320 | 124364
9 | 27:38.15 | 4:47.32 | 124365 | 145921
10 | 32:25.47 | 3:08.38 | 145922 | 160059
11 | 35:34.10 | 2:09.67 | 160060 | 169801
12 | 37:44.02 | 3:35.13 | 169802 | 185939
13 | 41:19.15 | 0:52.07 | 185940 | 189846


Track 13

Filename P:\FLAC\Dead Horse\Peaceful Death And Pretty Flowers\13. Sawbone.wav

Peak level 85.2 %
Track quality 100.0 %
Copy CRC C4AD65D8
Copy OK

No errors occurred

End of status report

cue
REM GENRE "Thrash Metal"
REM DATE 1991
REM DISCID B209E30D
REM COMMENT "ExactAudioCopy v0.99pb5"
CATALOG 0075992671620
PERFORMER "Dead Horse"
TITLE "Peaceful Death And Pretty Flowers"
FILE "Dead Horse - Peaceful Death And Pretty Flowers.wav" WAVE
TRACK 01 AUDIO
TITLE "Cod Piece Face"
PERFORMER "Dead Horse"
INDEX 00 00:00:00
INDEX 01 00:00:32
TRACK 02 AUDIO
TITLE "Turn"
PERFORMER "Dead Horse"
INDEX 00 03:29:17
INDEX 01 03:29:40
TRACK 03 AUDIO
TITLE "La La Song"
PERFORMER "Dead Horse"
INDEX 00 06:27:22
INDEX 01 06:27:70
TRACK 04 AUDIO
TITLE "Like Asrielle"
PERFORMER "Dead Horse"
INDEX 00 08:30:67
INDEX 01 08:32:72
TRACK 05 AUDIO
TITLE "The Latent Stage"
PERFORMER "Dead Horse"
INDEX 00 12:25:22
INDEX 01 12:25:67
TRACK 06 AUDIO
TITLE "Peaceful Death"
PERFORMER "Dead Horse"
INDEX 01 16:00:57
TRACK 07 AUDIO
TITLE "Eulogy"
PERFORMER "Dead Horse"
INDEX 00 20:54:47
INDEX 01 20:55:52
TRACK 08 AUDIO
TITLE "Snowdogs"
PERFORMER "Dead Horse"
INDEX 00 23:35:37
INDEX 01 23:37:45
TRACK 09 AUDIO
TITLE "The Lark Nest"
PERFORMER "Dead Horse"
INDEX 01 27:38:15
TRACK 10 AUDIO
TITLE "Medulla Oblongata"
PERFORMER "Dead Horse"
INDEX 00 32:22:67
INDEX 01 32:25:47
TRACK 11 AUDIO
TITLE "Aplo"
PERFORMER "Dead Horse"
INDEX 01 35:34:10
TRACK 12 AUDIO
TITLE "Rock Lobster"
PERFORMER "Dead Horse"
INDEX 00 37:41:72
INDEX 01 37:44:02
TRACK 13 AUDIO
TITLE "Sawbone"
PERFORMER "Dead Horse"
INDEX 00 41:18:37
INDEX 01 41:19:15

_________________
Death rules! Metal to all who oppose!


Last edited by Scatterbrain on 26 Nov 2014, edited 1 time in total.
added original log, cue & booklet cover


Top
 Profile  
 
 
PostPosted: 25 Nov 2014 
\m/ 80 см сала \m/
User avatar
Joined: 12 Mar 2012
Posts: 2590
Age: 26
Name: Nick
Quote:
12. Rock Lobster (The B-52's cover)

Наличие этого кавера заинтересовало ничуть не меньше утверждений Леонида :crazy:

_________________
1990 AUROPHON BRAINSTORM (Germany) - lossless
1994 MAUSOLEUM CLASSIX (Belgium-Germany) - lossless
1998 VA - GRIM HARVEST - Complete Metal Massacre Volumes I-XII


Top
 Profile  
 
 
PostPosted: 25 Nov 2014 
5-speed satisfactor
User avatar
Joined: 16 Feb 2009
Posts: 3755
Lоcаtion: New York, USA
Age: 41
Name: Leonid
Лично для меня в стиле thrash лучше чем Dead Horse и ранних Coroner никого нет. Единственно, не ожидайте услышать Coroner у Dead Horse. Стили диаметрально противоположные, хотя и оба thrash metal.

_________________
Death rules! Metal to all who oppose!


Top
 Profile  
 
 
PostPosted: 25 Nov 2014 
\m/ 80 см сала \m/
User avatar
Joined: 12 Mar 2012
Posts: 2590
Age: 26
Name: Nick



_________________
1990 AUROPHON BRAINSTORM (Germany) - lossless
1994 MAUSOLEUM CLASSIX (Belgium-Germany) - lossless
1998 VA - GRIM HARVEST - Complete Metal Massacre Volumes I-XII


Top
 Profile  
 
 
PostPosted: 26 Nov 2014 
5-speed satisfactor
User avatar
Joined: 16 Feb 2009
Posts: 3755
Lоcаtion: New York, USA
Age: 41
Name: Leonid
Я не понял... Никто не скачал и не отзеркалил?

_________________
Death rules! Metal to all who oppose!


Top
 Profile  
 
 
PostPosted: 26 Nov 2014 
Хиппей (support team)
User avatar
Joined: 30 Jul 2007
Posts: 114037
Lоcаtion: Киев (Kyiv, UA)
Age: 46
Name: Andrey
:thanx:

Image
Image
Image

mirror: Narod l M-Cloud

_________________


Top
 Profile E-mail  
 
 
PostPosted: 26 Nov 2014 
Хиппей (support team)
User avatar
Joined: 30 Jul 2007
Posts: 114037
Lоcаtion: Киев (Kyiv, UA)
Age: 46
Name: Andrey
Я не понял... Никто не скачал и не отзеркалил?

В Европе снова дни великого футбола :pardon:

_________________


Top
 Profile E-mail  
 
 
PostPosted: 26 Nov 2014 
Хиппей (support team)
User avatar
Joined: 30 Jul 2007
Posts: 114037
Lоcаtion: Киев (Kyiv, UA)
Age: 46
Name: Andrey
А вот дебютник у них намного лучше :dance: А второй порватый какой-то, аритмичный и слишком кроссоверый.
И вообще Данзиг рулит :blum: А Lawnmower Deth вообще гениальны. Были...

metaleonid wrote:
Чтоб восстановить образ, надо отпилить 11172 семпла с конца последней песенки, ну и склеить все треки в 1.

Люди кто-то позже сможет это сделать?
Или хотя бы показать как и чем подобное склеивается. Саунд Форж или Адоб Аудишен подойдёт? :oops:

Лёня, спасибо огромное за очередной рар в первопрессе. Но вопрос остается всё тот же - а есть ли у тебя возможность выкладывать изначально сделанные правильные и точные рипы? Или это чужие и править их самому уже некогда?

_________________


Top
 Profile E-mail  
 
 
PostPosted: 26 Nov 2014 
Хиппей (support team)
User avatar
Joined: 30 Jul 2007
Posts: 114037
Lоcаtion: Киев (Kyiv, UA)
Age: 46
Name: Andrey
metaleonid wrote:
Лично для меня в стиле thrash (...)

Не, это ж скорее trash metal :pardon: Но шутку оценил =)

Ну и сайт у них... http://horsecore.net :sp:

_________________


Top
 Profile E-mail  
 
 
PostPosted: 26 Nov 2014 
5-speed satisfactor
User avatar
Joined: 16 Feb 2009
Posts: 3755
Lоcаtion: New York, USA
Age: 41
Name: Leonid
Андрюха, склеивать можно командой sox.exe.

Вот так:
sox.exe ??.*.wav output.wav


File output.wav будет иметь исходный образ.

Первый хороший тоже. Выложу как нибудь.

_________________
Death rules! Metal to all who oppose!


Top
 Profile  
 
 
PostPosted: 26 Nov 2014 
Генеральный thrasher
User avatar
Joined: 03 Oct 2008
Posts: 3717
Lоcаtion: Ханты-Мансийский АО
Age: 44
Name: Сергей
Трое музыкантов Dead Horse (Ronny Guyote,Greg Martin и Scott Sevall ) играют ныне в Pasadena Napalm Division,где вокалистом является Kurt Brecht (бессменный фронтмен D.R.I.)...и очень неплохую делают музыку.


Top
 Profile  
 
 
PostPosted: 26 Nov 2014 
Хиппей (support team)
User avatar
Joined: 30 Jul 2007
Posts: 114037
Lоcаtion: Киев (Kyiv, UA)
Age: 46
Name: Andrey
Вообще весь бывший состав группы разошёлся удачно по другим коллективам :dance:


metaleonid wrote:
Андрюха, склеивать можно командой sox.exe.

Вот так:
sox.exe ??.*.wav output.wav


File output.wav будет иметь исходный образ.

Лёнь... это что, утилитка такая, или команда в программке какой-то? :vic:

зы. Полез в Гугл...

_________________


Top
 Profile E-mail  
 
 
PostPosted: 26 Nov 2014 
Хиппей (support team)
User avatar
Joined: 30 Jul 2007
Posts: 114037
Lоcаtion: Киев (Kyiv, UA)
Age: 46
Name: Andrey
Ага, понял http://sox.sourceforge.net

Скоро попробую, пасибо. Взял на вооружение Image

Явно мне сюда? http://wikisound.org/Sound_Forge_%D1%80 ... 0%BB%D0%B0 :vic:

_________________


Top
 Profile E-mail  
 
 
PostPosted: 29 Nov 2014 
Работнечег
User avatar
Joined: 28 Aug 2007
Posts: 5939
Lоcаtion: г. Москва
Age: 30
Name: Дима
Спасибо! Ипишка Boiling была одним из первых в данном стиле, что довелось послушать, но это было так давно, что сказать что-то более подробно, уже и не могу :crazy:


Top
 Profile E-mail  
 
 
PostPosted: 29 Nov 2014 
Хиппей (support team)
User avatar
Joined: 30 Jul 2007
Posts: 114037
Lоcаtion: Киев (Kyiv, UA)
Age: 46
Name: Andrey
Первый хороший тоже. Выложу как нибудь.

...только если в таком же косом виде, то луче нинада :slo:

_________________


Top
 Profile E-mail  
 
 
PostPosted: 29 Nov 2014 
парень в очёчкXаX!
User avatar
Joined: 15 Aug 2007
Posts: 2353
Lоcаtion: UK'раина, г. ЛондАн Би-Би-Си
Age: 48
Name: Сергей
...только если в таком же косом виде, то луче нинада

MT :lob:


Top
 Profile  
 
Display posts from previous:  Sort by  
Post new topic Reply to topic  [ 16 posts ] 

All times are UTC + 3 hours


Who is online

Users browsing this forum: No registered users and 2 guests


You cannot post new topics in this forum
You cannot reply to topics in this forum
You cannot edit your posts in this forum
You cannot delete your posts in this forum
You cannot post attachments in this forum

Search for:
Яндекс.Метрика
Powered by phpBB © 2000, 2002, 2005, 2007 phpBB Group