\m/ 80's metal \m/

Информационно-аналитический форум "80 см пыли" (In Search We Trust) "У нас никто никуда не спешит"
Me For You - http://me-4u.com
It is currently 16 Nov 2018

All times are UTC + 3 hours

Spoiler
Chat - temporary registration for foreign users (please leave your application here)







Post new topic Reply to topic  [ 8 posts ] 
Author Message
 
PostPosted: 01 Nov 2014 
Генеральный thrasher
User avatar
Joined: 03 Oct 2008
Posts: 3504
Lоcаtion: Ханты-Мансийский АО
Age: 43
Name: Сергей
Переиздание в одном флаконе всего творчества замечательной штатовской команды.В данную антологию вошли одноименный с группой полнометражник,записанный в 1989 году,All Four You [EP] 1991 года и The Limit (Demo) 1987 года.В графе состав указан тот,в котором писался альбом Dead On.На епишке All For You в качестве вокалиста уже брат гитариста Tony Frazzitta - Carl Frazzitta.

Image

Year:2012
Style:Power/Thrash Metal
Country:U.S.A.
Audio:Flac+Cue+Log+Scans
Size:396Mb+329Mb
Source:my CD
Label:Divebomb Records

Line-Up:
Mike Raptis - vocals
Tony Frazzitta - guitars
Michael Caronia - guitars
John Lindner - bass
Mike "Dunk" Caputo - drums

CD1 Tracklist:
01. Salem Girls 05:34
02. Beat A Dead Horse 05:43
03. The Widower 04:55
04. The Matador's Nightmare 05:31
05. Full Moon 05:38
06. Escape 05:54
07. Merry Ship 05:57
08. Different Breed 05:05
09. Dead On 04:36


CD2 Tracklist:
All Four You (EP)
01. One For You 04:53
02. Every Day On Earth 06:19
03. Lost At Sea 06:08
04. Do What You Want 05:08
05. Turning Japanese (The Vapors cover) (Previously Unreleased) 03:25
The Limit (Demo)
06. Medusa 04:59
07. Third Reich 04:17
08. Comin’ Back 04:23
09. No Clue 03:46
"Cue 1
REM GENRE "Thrash Metal"
REM DATE 1989
REM DISCID 910EDD0A
REM COMMENT "ExactAudioCopy v0.99pb5"
PERFORMER "Dead On"
TITLE "Dead On - Disc 1 [2012 2CD Reissue]"
FILE "Dead On - Dead On - Disc 1 [2012 2CD Reissue].flac" WAVE
TRACK 01 AUDIO
TITLE "Salem Girls"
PERFORMER "Dead On"
FLAGS DCP
INDEX 01 00:00:00
TRACK 02 AUDIO
TITLE "Beat A Dead Horse"
PERFORMER "Dead On"
FLAGS DCP
INDEX 01 05:34:40
TRACK 03 AUDIO
TITLE "The Widower"
PERFORMER "Dead On"
FLAGS DCP
INDEX 01 11:18:07
TRACK 04 AUDIO
TITLE "The Matador's Nightmare"
PERFORMER "Dead On"
FLAGS DCP
INDEX 01 16:13:12
TRACK 05 AUDIO
TITLE "Full Moon"
PERFORMER "Dead On"
FLAGS DCP
INDEX 01 21:44:27
TRACK 06 AUDIO
TITLE "Escape"
PERFORMER "Dead On"
FLAGS DCP
INDEX 01 27:22:37
TRACK 07 AUDIO
TITLE "Merry Ship"
PERFORMER "Dead On"
FLAGS DCP
INDEX 01 33:17:12
TRACK 08 AUDIO
TITLE "Different Breed"
PERFORMER "Dead On"
FLAGS DCP
INDEX 01 39:14:17
TRACK 09 AUDIO
TITLE "Dead On"
PERFORMER "Dead On"
FLAGS DCP
INDEX 01 44:19:37

"Cue 2"
REM GENRE "Thrash Metal"
REM DATE 1989
REM DISCID 940C170A
REM COMMENT "ExactAudioCopy v0.99pb5"
PERFORMER "Dead On"
TITLE "Dead On - Disc 2 [2012 2CD Reissue]"
FILE "Dead On - Dead On - Disc 2 [2012 2CD Reissue].flac" WAVE
TRACK 01 AUDIO
TITLE "One For You ['All For You' EP 1991]"
PERFORMER "Dead On"
FLAGS DCP
INDEX 01 00:00:00
TRACK 02 AUDIO
TITLE "Every Day On Earth ['All For You' EP 1991]"
PERFORMER "Dead On"
FLAGS DCP
INDEX 01 04:53:37
TRACK 03 AUDIO
TITLE "Lost At Sea ['All For You' EP 1991]"
PERFORMER "Dead On"
FLAGS DCP
INDEX 01 11:13:32
TRACK 04 AUDIO
TITLE "Do What You Want ['All For You' EP 1991]"
PERFORMER "Dead On"
FLAGS DCP
INDEX 01 17:22:00
TRACK 05 AUDIO
TITLE "Turning Japanese [Previously unreleased]"
PERFORMER "Dead On"
FLAGS DCP
INDEX 01 22:30:60
TRACK 06 AUDIO
TITLE "Medusa ['The Limit' demo 1987]"
PERFORMER "Dead On"
FLAGS DCP
INDEX 01 25:56:56
TRACK 07 AUDIO
TITLE "Third Reich ['The Limit' demo 1987]"
PERFORMER "Dead On"
FLAGS DCP
INDEX 01 30:55:73
TRACK 08 AUDIO
TITLE "Comin' Back ['The Limit' demo 1987]"
PERFORMER "Dead On"
FLAGS DCP
INDEX 01 35:13:72
TRACK 09 AUDIO
TITLE "No Clue ['The Limit' demo 1987]"
PERFORMER "Dead On"
FLAGS DCP
INDEX 01 39:37:41

"Log 1"
Exact Audio Copy V0.99 prebeta 5 from 4. May 2009

Отчёт EAC об извлечении, выполненном 29. октября 2014, 12:13

Dead On / Dead On - Disc 1 [2012 2CD Reissue]

Дисковод: MATSHITADVD-RAM UJ8A0AS Adapter: 0 ID: 1

Режим чтения : Достоверность
Использование точного потока : Да
Отключение кэша аудио : Да
Использование указателей C2 : Нет

Коррекция смещения при чтении : 102
Способность читать области Lead-in и Lead-out : Нет
Заполнение пропущенных сэмплов тишиной : Да
Удаление блоков с тишиной в начале и конце : Нет
При вычислениях CRC использовались нулевые сэмплы : Да
Интерфейс : Встроенный Win32-интерфейс для Win NT/2000

Выходной формат : Пользовательский кодировщик
Выбранный битрейт : 1024 kBit/s
Качество : Высокий
Добавление ID3-тэга : Нет
Утилита сжатия : C:\Program Files\Exact Audio Copy\FLAC\FLAC.EXE
Дополнительные параметры : -6 -V -T "ARTIST=%a" -T "TITLE=%t" -T "ALBUM=%g" -T "DATE=%y" -T "TRACKNUMBER=%n" -T "GENRE=%m" -T "COMMENT=%e" %s -o %d


TOC извлечённого CD

Трек | Старт | Длительность | Начальный сектор | Конечный сектор
---------------------------------------------------------------------
1 | 0:00.00 | 5:34.40 | 0 | 25089
2 | 5:34.40 | 5:43.42 | 25090 | 50856
3 | 11:18.07 | 4:55.05 | 50857 | 72986
4 | 16:13.12 | 5:31.15 | 72987 | 97826
5 | 21:44.27 | 5:38.10 | 97827 | 123186
6 | 27:22.37 | 5:54.50 | 123187 | 149786
7 | 33:17.12 | 5:57.05 | 149787 | 176566
8 | 39:14.17 | 5:05.20 | 176567 | 199461
9 | 44:19.37 | 4:36.38 | 199462 | 220199
10 | 51:28.00 | 11:57.49 | 231600 | 285423


Характеристики диапазона извлечения и сообщения об ошибках

Выбранный диапазон

Имя файла C:\Users\эксперт\Music\Dead On - Dead On - Disc 1 [2012 2CD Reissue].wav

Пиковый уровень 98.8 %
Качество диапазона 100.0 %
CRC копии 773CAEAE
Копирование... OK

Ошибок не произошло


AccurateRip: сводка

Трек 1 точность не определена (достоверность 1) [17EEF7F4], AccurateRip вернул [F67D548E]
Трек 2 точность не определена (достоверность 1) [CA676D64], AccurateRip вернул [B4C77773]
Трек 3 точность не определена (достоверность 1) [30345465], AccurateRip вернул [059675CA]
Трек 4 точность не определена (достоверность 1) [913026A4], AccurateRip вернул [4281E8E6]
Трек 5 точность не определена (достоверность 1) [73BA23B3], AccurateRip вернул [44C2B9E2]
Трек 6 точность не определена (достоверность 1) [B462E8F5], AccurateRip вернул [B7C912E6]
Трек 7 точность не определена (достоверность 1) [1A93DCC0], AccurateRip вернул [7C071D78]
Трек 8 точность не определена (достоверность 1) [734AEF66], AccurateRip вернул [6D7F187E]
Трек 9 точность не определена (достоверность 1) [ABFD9B55], AccurateRip вернул [8E7A125A]

Ни один трек не прошёл проверки на точность
В вашей базе может быть иной вариант штамповки диска

Конец отчёта

"Log 2"
Exact Audio Copy V0.99 prebeta 5 from 4. May 2009

Отчёт EAC об извлечении, выполненном 29. октября 2014, 13:14

Dead On / Dead On - Disc 2 [2012 2CD Reissue]

Дисковод: MATSHITADVD-RAM UJ8A0AS Adapter: 0 ID: 1

Режим чтения : Достоверность
Использование точного потока : Да
Отключение кэша аудио : Да
Использование указателей C2 : Нет

Коррекция смещения при чтении : 102
Способность читать области Lead-in и Lead-out : Нет
Заполнение пропущенных сэмплов тишиной : Да
Удаление блоков с тишиной в начале и конце : Нет
При вычислениях CRC использовались нулевые сэмплы : Да
Интерфейс : Встроенный Win32-интерфейс для Win NT/2000

Выходной формат : Пользовательский кодировщик
Выбранный битрейт : 1024 kBit/s
Качество : Высокий
Добавление ID3-тэга : Нет
Утилита сжатия : C:\Program Files\Exact Audio Copy\FLAC\FLAC.EXE
Дополнительные параметры : -6 -V -T "ARTIST=%a" -T "TITLE=%t" -T "ALBUM=%g" -T "DATE=%y" -T "TRACKNUMBER=%n" -T "GENRE=%m" -T "COMMENT=%e" %s -o %d


TOC извлечённого CD

Трек | Старт | Длительность | Начальный сектор | Конечный сектор
---------------------------------------------------------------------
1 | 0:00.00 | 4:53.37 | 0 | 22011
2 | 4:53.37 | 6:19.70 | 22012 | 50506
3 | 11:13.32 | 6:08.43 | 50507 | 78149
4 | 17:22.00 | 5:08.60 | 78150 | 101309
5 | 22:30.60 | 3:25.71 | 101310 | 116755
6 | 25:56.56 | 4:59.17 | 116756 | 139197
7 | 30:55.73 | 4:17.74 | 139198 | 158546
8 | 35:13.72 | 4:23.44 | 158547 | 178315
9 | 39:37.41 | 3:46.65 | 178316 | 195330
10 | 45:56.31 | 5:38.54 | 206731 | 232134


Характеристики диапазона извлечения и сообщения об ошибках

Выбранный диапазон

Имя файла C:\Users\эксперт\Music\Dead On - Dead On - Disc 2 [2012 2CD Reissue].wav

Пиковый уровень 98.8 %
Качество диапазона 100.0 %
CRC копии 7D5F54A5
Копирование... OK

Ошибок не произошло


AccurateRip: сводка

Трек 1 точность не определена (достоверность 1) [CE445441], AccurateRip вернул [30E8E1B8]
Трек 2 точность не определена (достоверность 1) [9FBB7801], AccurateRip вернул [85E24512]
Трек 3 точность не определена (достоверность 1) [7D580BF8], AccurateRip вернул [79EBB989]
Трек 4 точность не определена (достоверность 1) [D3C24F79], AccurateRip вернул [05C17A09]
Трек 5 точность не определена (достоверность 1) [FBC22F46], AccurateRip вернул [2DD2FD7C]
Трек 6 точность не определена (достоверность 1) [570816E4], AccurateRip вернул [9FE3484C]
Трек 7 точность не определена (достоверность 1) [B11508AA], AccurateRip вернул [DBD924F4]
Трек 8 точность не определена (достоверность 1) [A9BE81BB], AccurateRip вернул [33F92A43]
Трек 9 точность не определена (достоверность 1) [AD358F55], AccurateRip вернул [34C4FA98]

Ни один трек не прошёл проверки на точность
В вашей базе может быть иной вариант штамповки диска

Конец отчёта


Dead On CD 1

Dead On CD 2


Top
 Profile  
 
 
PostPosted: 01 Nov 2014 
Прокъмитолист
User avatar
Joined: 12 Aug 2007
Posts: 6504
Lоcаtion: Санктъ-Петербуркъ
Age: 51
Name: Олекъ
Серёг, спасибо! :thanx:

_________________
прокъметол - это музыко, от которово есть прок (ы)


Top
 Profile  
 
 
PostPosted: 01 Nov 2014 
\m/ 80 см сала \m/
User avatar
Joined: 12 Mar 2012
Posts: 2589
Age: 25
Name: Nick
:thanx:

_________________
1990 AUROPHON BRAINSTORM (Germany) - lossless
1994 MAUSOLEUM CLASSIX (Belgium-Germany) - lossless
1998 VA - GRIM HARVEST - Complete Metal Massacre Volumes I-XII


Top
 Profile  
 
 
PostPosted: 01 Nov 2014 
А может смените мне статус?..
User avatar
Joined: 02 Feb 2009
Posts: 999
Lоcаtion: из Тулы
Age: 44
Name: Максим
:thanx:

_________________
КМА


Top
 Profile  
 
 
PostPosted: 01 Nov 2014 
Хиппей (support team)
User avatar
Joined: 30 Jul 2007
Posts: 108066
Lоcаtion: Киев (Kyiv, UA)
Age: 45
Name: Andrey
:thanx:

mirror:

CD1 - Narod l M-Cloud
CD2 - Narod l M-Cloud

_________________


Top
 Profile E-mail  
 
 
PostPosted: 01 Nov 2014 
спирт 100%
User avatar
Joined: 22 Sep 2008
Posts: 4312
Age: 47
Name: Саня
:thanx: Спасибо!


Top
 Profile  
 
 
PostPosted: 01 Nov 2014 
Partisanen - nicht kapitulieren!!
User avatar
Joined: 25 Dec 2011
Posts: 6755
Lоcаtion: партизанские леса
Age: 46
Name: Владимир
:thanx:

_________________
One more beer and Heavy Metal and I'm just fine!
старовер, куле... слово "блин" - до сих пор через Ъ говорю


Top
 Profile E-mail  
 
 
PostPosted: 04 May 2015 
Работнечег
User avatar
Joined: 28 Aug 2007
Posts: 5528
Lоcаtion: г. Москва
Age: 29
Name: Дима
Спасибо, Серег! :thanx:


Top
 Profile E-mail  
 
Display posts from previous:  Sort by  
Post new topic Reply to topic  [ 8 posts ] 

All times are UTC + 3 hours


Who is online

Users browsing this forum: No registered users and 2 guests


You cannot post new topics in this forum
You cannot reply to topics in this forum
You cannot edit your posts in this forum
You cannot delete your posts in this forum
You cannot post attachments in this forum

Search for:
Яндекс.Метрика
Powered by phpBB © 2000, 2002, 2005, 2007 phpBB Group