\m/ 80's metal \m/

Информационно-аналитический форум "80 см пыли" (In Search We Trust) "У нас никто никуда не спешит"
Me For You - http://me-4u.com
It is currently 23 Aug 2019

All times are UTC + 3 hours

Spoiler
Chat - temporary registration for foreign users (please leave your application here)







Post new topic Reply to topic  [ 43 posts ]  Go to page Previous  1, 2, 3
Author Message
 
PostPosted: 19 Nov 2011 
Хиппей (support team)
User avatar
Joined: 30 Jul 2007
Posts: 114071
Lоcаtion: Киев (Kyiv, UA)
Age: 46
Name: Andrey
Privateer wrote:
Нужен дебютник.

Явно уже давно не нужен? :vic:

_________________


Top
 Profile E-mail  
 
 
PostPosted: 20 Nov 2011 
Power Metal Maniac
User avatar
Joined: 09 Aug 2008
Posts: 6827
Lоcаtion: Москва
Age: 41
Name: Егор
Нужно вот что:
Last Days Of Utopia (1995), Limited Edition, Digipack, LMP 0502-077 2DP, disc 2:
01. Head Above The Water
02. Caught In The Flame
03. A New Beginning (Non Epic Version)
04. Endless Rain (Non Epic Version)
05. Left Alone (Non Epic Version)
06. Endless Rain (Video Clip)

http://www.musik-sammler.de/media/7186

хорошо бы :losik:

_________________
Long Live Metal!


Top
 Profile  
 
 
PostPosted: 23 Feb 2012 
Хиппей (support team)
User avatar
Joined: 30 Jul 2007
Posts: 114071
Lоcаtion: Киев (Kyiv, UA)
Age: 46
Name: Andrey
Как-то лосиков у нас на форуме по данной группе и не наблюдается... Упущение :shok:

Domain - 1989 - Before The Storm [flac]

Image
Image

Genre: Melodic Hard & Heavy
Location: Germany
Format: flac + cue + log + scans
Size: 323 Mb


Line-up:

Axel "Ironfinger" Ritt - guitars
Thorsten Preker - drums
Cliff Jackson - guitars
Volker Sassenberg - keyboards
Bernie Kolbe - vocals, bass

    1. Caught in the Flame - 04:06
    2. Beg Steal or Borrow - 03:38
    3. I Don't Wanna Die - 04:23
    4. Edge of the Knife - 04:49
    5. Keep Running - 03:48
    6. Hideaway - 03:45
    7. All for One - 03:27
    8. Lost without Trace - 03:58
    9. Harden My Heart - 04:15
    10. I Can See the Light - 03:32
    11. Hearts of Stone - 05:05
    TPT: 44:46

Ну чего, отличный альбом. Классика мелодичного германского хэви и всё такое :meloman:

9/10

Источник: в прошлом году откуда-то стырил. Авось по логу кто-то определит рипера :dance:

Speedy l Narod

log
Exact Audio Copy V0.99 prebeta 5 from 4. May 2009

Отчёт EAC об извлечении, выполненном 6. ноября 2011, 7:39

Domain / Before The Storm

Дисковод: ASUS DRW-2014S1T Adapter: 2 ID: 1

Режим чтения : Достоверность
Использование точного потока : Да
Отключение кэша аудио : Да
Использование указателей C2 : Нет

Коррекция смещения при чтении : 6
Способность читать области Lead-in и Lead-out : Нет
Заполнение пропущенных сэмплов тишиной : Да
Удаление блоков с тишиной в начале и конце : Нет
При вычислениях CRC использовались нулевые сэмплы : Да
Интерфейс : Встроенный Win32-интерфейс для Win NT/2000

Выходной формат : Внутренние WAV-операции
Формат сэмплов : 44.100 Гц; 16 бит; стерео


TOC извлечённого CD

Трек | Старт | Длительность | Начальный сектор | Конечный сектор
---------------------------------------------------------------------
1 | 0:00.00 | 4:04.38 | 0 | 18337
2 | 4:04.38 | 3:36.47 | 18338 | 34584
3 | 7:41.10 | 4:21.65 | 34585 | 54224
4 | 12:03.00 | 4:47.55 | 54225 | 75804
5 | 16:50.55 | 3:46.45 | 75805 | 92799
6 | 20:37.25 | 3:43.30 | 92800 | 109554
7 | 24:20.55 | 3:25.25 | 109555 | 124954
8 | 27:46.05 | 3:56.53 | 124955 | 142707
9 | 31:42.58 | 4:13.30 | 142708 | 161712
10 | 35:56.13 | 3:31.02 | 161713 | 177539
11 | 39:27.15 | 5:05.48 | 177540 | 200462


Характеристики диапазона извлечения и сообщения об ошибках

Выбранный диапазон

Имя файла D:\2\Domain - Before The Storm.wav

Пиковый уровень 99.0 %
Качество диапазона 100.0 %
CRC копии 87A9AA39
Копирование... OK

Ошибок не произошло

Конец отчёта


cue
REM GENRE "Hard Rock"
REM DATE 1989
REM DISCID 900A700B
REM COMMENT "ExactAudioCopy v0.99pb5"
PERFORMER "Domain"
TITLE "Before The Storm"
FILE "Domain - Before The Storm.flac" WAVE
TRACK 01 AUDIO
TITLE "Caught in the Flame"
PERFORMER "Domain"
INDEX 01 00:00:00
TRACK 02 AUDIO
TITLE "Beg Steal or Borrow"
PERFORMER "Domain"
INDEX 00 04:03:25
INDEX 01 04:04:38
TRACK 03 AUDIO
TITLE "I don't wanna Die"
PERFORMER "Domain"
INDEX 00 07:40:13
INDEX 01 07:41:10
TRACK 04 AUDIO
TITLE "Edge of the Knife"
PERFORMER "Domain"
INDEX 00 12:01:15
INDEX 01 12:03:00
TRACK 05 AUDIO
TITLE "Keep Running"
PERFORMER "Domain"
INDEX 00 16:49:53
INDEX 01 16:50:55
TRACK 06 AUDIO
TITLE "Hideaway"
PERFORMER "Domain"
INDEX 00 20:36:38
INDEX 01 20:37:25
TRACK 07 AUDIO
TITLE "All for one"
PERFORMER "Domain"
INDEX 00 24:20:53
INDEX 01 24:20:55
TRACK 08 AUDIO
TITLE "Lost without Trace"
PERFORMER "Domain"
INDEX 00 27:45:08
INDEX 01 27:46:05
TRACK 09 AUDIO
TITLE "Harden My Heart"
PERFORMER "Domain"
INDEX 00 31:41:65
INDEX 01 31:42:58
TRACK 10 AUDIO
TITLE "I can see the Light"
PERFORMER "Domain"
INDEX 00 35:55:25
INDEX 01 35:56:13
TRACK 11 AUDIO
TITLE "Heart of Stone"
PERFORMER "Domain"
INDEX 00 39:26:28
INDEX 01 39:27:15


spectrum
Image

_________________


Top
 Profile E-mail  
 
Display posts from previous:  Sort by  
Post new topic Reply to topic  [ 43 posts ]  Go to page Previous  1, 2, 3

All times are UTC + 3 hours


Who is online

Users browsing this forum: No registered users and 4 guests


You cannot post new topics in this forum
You cannot reply to topics in this forum
You cannot edit your posts in this forum
You cannot delete your posts in this forum
You cannot post attachments in this forum

Search for:
Яндекс.Метрика
Powered by phpBB © 2000, 2002, 2005, 2007 phpBB Group