\m/ 80's metal \m/

Информационно-аналитический форум "80 см пыли" (In Search We Trust) "У нас никто никуда не спешит"
Me For You - http://me-4u.com
It is currently 26 Aug 2019

All times are UTC + 3 hours

Spoiler
Chat - temporary registration for foreign users (please leave your application here)







Post new topic Reply to topic  [ 19 posts ] 
Author Message
 
PostPosted: 23 Apr 2014 
Персональный статус
User avatar
Joined: 29 Jan 2009
Posts: 265
Lоcаtion: Таллин, Эстония.
Age: 32
Name: Роман Юрич
Band / Название Группы: Despair
Album title / Название Альбома : History Of Hate
Year / Год Выпуска : 1988
Genre / Жанр: Thrash Metal
Country / Страна : Germany
Edition / Издание : First press CD on Century Media.

Image

Track list / Список Песен

01. 02:38 The Enigma
02. 03:37 Freedom Now
03. 04:23 History Of Hate
04. 08:09 Constructing The Apocalypse
05. 04:11 Slow Death
06. 04:11 Outconditioned
07. 04:46 Slaves Of Power
08. 06:49 Joy Division
09. 05:03 Never Trust


Technical info / Технические данные .

Source / Источник : CD-DA
Format / Формат : WavPack, Lossless Very High Compression, -hh -x6
Resolution / Разрешение : 44 100 Hz
Bit Depth / Битовая Глубина : 16 bits
Total playing time / Суммарное время проигрывания : 43:47
Album art / Полиграфия: Front cover, Back cover, Booklet, CD / Передняя обложка, Задняя обложка, Буклет, CD[

Comment / Комментарий
The covers were scanned at 300 DPI then resized. The front cover was scanned at 600 DPI then resized.
Обложки были отсканированны с разрешением в 300 DPI, после чего они были уменьшены в размере. Главная обложка была отсканированна с разрешением в 600 DPI, после чего она была уменьшенна в размере.


Links / Ссылки

Dropbox Lossless
Dropbox MP3 320


EAC Log
Code:
Exact Audio Copy V1.0 beta 3 from 29. August 2011

EAC extraction logfile from 24. July 2013, 3:17

Despair / History Of Hate

Used drive  : PLEXTOR DVDR   PX-891SA   Adapter: 0  ID: 0

Read mode               : Secure
Utilize accurate stream : Yes
Defeat audio cache      : Yes
Make use of C2 pointers : No

Read offset correction                      : 6
Overread into Lead-In and Lead-Out          : No
Fill up missing offset samples with silence : Yes
Delete leading and trailing silent blocks   : No
Null samples used in CRC calculations       : Yes
Used interface                              : Native Win32 interface for Win NT & 2000

Used output format : Internal WAV Routines
Sample format      : 44.100 Hz; 16 Bit; Stereo


TOC of the extracted CD

     Track |   Start  |  Length  | Start sector | End sector
    ---------------------------------------------------------
        1  |  0:00.00 |  2:37.45 |         0    |    11819   
        2  |  2:37.45 |  3:36.72 |     11820    |    28091   
        3  |  6:14.42 |  4:22.48 |     28092    |    47789   
        4  | 10:37.15 |  8:09.25 |     47790    |    84489   
        5  | 18:46.40 |  4:10.72 |     84490    |   103311   
        6  | 22:57.37 |  4:11.18 |    103312    |   122154   
        7  | 27:08.55 |  4:46.20 |    122155    |   143624   
        8  | 31:55.00 |  6:48.40 |    143625    |   174264   
        9  | 38:43.40 |  5:03.37 |    174265    |   197026   


Range status and errors

Selected range

     Filename D:\Audio\Vinyl ; CD ; Tape Rips\# Lossless Temp\Despair (1988) - History Of Hate [WV]\Despair (1988) - History Of Hate - WV.wav

     Suspicious position 0:40:20 - 0:40:21
     Suspicious position 0:40:25
     Suspicious position 0:40:29
     Suspicious position 0:40:55 - 0:40:56
     Suspicious position 0:40:58
     Suspicious position 0:41:13 - 0:41:15
     Suspicious position 0:41:41
     Suspicious position 0:41:44
     Suspicious position 0:41:46 - 0:41:47
     Suspicious position 0:42:24

     Peak level 100.0 %
     Extraction speed 0.6 X
     Range quality 99.1 %
     Test CRC 8C0D0B93
     Copy CRC AAB03A13
     Copy finished

There were errors


AccurateRip summary

Track  1  accurately ripped (confidence 5)  [CA7DFB6D]  (AR v1)
Track  2  accurately ripped (confidence 5)  [57D41E0F]  (AR v1)
Track  3  accurately ripped (confidence 5)  [F5033273]  (AR v1)
Track  4  accurately ripped (confidence 3)  [F131342D]  (AR v1)
Track  5  accurately ripped (confidence 5)  [EA9249B2]  (AR v1)
Track  6  accurately ripped (confidence 5)  [237F29F2]  (AR v1)
Track  7  accurately ripped (confidence 5)  [602481C2]  (AR v1)
Track  8  accurately ripped (confidence 5)  [4AC771CE]  (AR v1)
Track  9  cannot be verified as accurate (confidence 5)  [3F6ECF99], AccurateRip returned [47B35E78]  (AR v2)

8 track(s) accurately ripped
1 track(s) could not be verified as accurate

Some tracks could not be verified as accurate

End of status report

---- CUETools DB Plugin V2.1.3

[CTDB TOCID: Wqa7IxlfyAHpkubi_JyLWm_Nxg4-] found, Submit result: insufficient quality
[78943bd8] (4/4) No match


==== Log checksum ED9756C3EC7131BA82A7B2599D19FF72D80F58991C6D70DA3D3E2F1BB8C5E2FD ====



CUE Sheet
Code:
REM GENRE "Thrash Metal"
REM DATE 1988
REM DISCID 7B0A4309
REM COMMENT "ExactAudioCopy v1.0b3"
PERFORMER "Despair"
TITLE "History Of Hate"
FILE "Despair (1988) - History Of Hate - WV.wv" WAVE
  TRACK 01 AUDIO
    TITLE "The Enigma"
    PERFORMER "Despair"
    INDEX 01 00:00:00
  TRACK 02 AUDIO
    TITLE "Freedom Now"
    PERFORMER "Despair"
    INDEX 01 02:37:45
  TRACK 03 AUDIO
    TITLE "History Of Hate"
    PERFORMER "Despair"
    INDEX 00 06:12:42
    INDEX 01 06:14:42
  TRACK 04 AUDIO
    TITLE "Constructing The Apocalypse"
    PERFORMER "Despair"
    INDEX 00 10:35:15
    INDEX 01 10:37:15
  TRACK 05 AUDIO
    TITLE "Slow Death"
    PERFORMER "Despair"
    INDEX 00 18:44:40
    INDEX 01 18:46:40
  TRACK 06 AUDIO
    TITLE "Outconditioned"
    PERFORMER "Despair"
    INDEX 00 22:56:37
    INDEX 01 22:57:37
  TRACK 07 AUDIO
    TITLE "Slaves Of Power"
    PERFORMER "Despair"
    INDEX 00 27:07:55
    INDEX 01 27:08:55
  TRACK 08 AUDIO
    TITLE "Joy Division"
    PERFORMER "Despair"
    INDEX 00 31:54:00
    INDEX 01 31:55:00
  TRACK 09 AUDIO
    TITLE "Never Trust"
    PERFORMER "Despair"
    INDEX 00 38:41:40
    INDEX 01 38:43:40

_________________
Death The Ultimate Reality
Death The Ultimate Reason To Live


Top
 Profile  
 
 
PostPosted: 23 Apr 2014 
спирт 100%
User avatar
Joined: 22 Sep 2008
Posts: 4460
Age: 48
Name: Саня
:thanx: Спасибо!


Top
 Profile  
 
 
PostPosted: 24 Apr 2014 
Персональный статус
User avatar
Joined: 29 Jan 2009
Posts: 265
Lоcаtion: Таллин, Эстония.
Age: 32
Name: Роман Юрич
Спрут, наслаждайся !

Для любителей поковыряться со сканами : Link Asphyxia ; Despair.

_________________
Death The Ultimate Reality
Death The Ultimate Reason To Live


Top
 Profile  
 
 
PostPosted: 24 Apr 2014 
Хиппей (support team)
User avatar
Joined: 30 Jul 2007
Posts: 114094
Lоcаtion: Киев (Kyiv, UA)
Age: 46
Name: Andrey
:thanx:

_________________


Top
 Profile E-mail  
 
 
PostPosted: 24 Apr 2014 
Доктор энтомологии
User avatar
Joined: 22 Jan 2009
Posts: 9851
Lоcаtion: Даугавпилс
Age: 44
Name: Алексей
А вот этот очень хорошщий приятный альбом, классика стиля. Вальдемар Сорихта (иль Шорихта) вродь как замешан тут :umnik:
обновим емпетриху :thanx: :thanx: :thanx:


Top
 Profile  
 
 
PostPosted: 24 Apr 2014 
Хиппей (support team)
User avatar
Joined: 30 Jul 2007
Posts: 114094
Lоcаtion: Киев (Kyiv, UA)
Age: 46
Name: Andrey
Entomologist wrote:
Вальдемар Сорихта

Соришта. Насколько помню на слух оригинальное его произношение =)

_________________


Top
 Profile E-mail  
 
 
PostPosted: 24 Apr 2014 
Персональный статус
User avatar
Joined: 29 Jan 2009
Posts: 265
Lоcаtion: Таллин, Эстония.
Age: 32
Name: Роман Юрич
Альбом, я бы сказал, уникальный. Ничего похожего я не слышал, да и вряд ли услышу. Есть такие альбомы, которые ни на что не похожи. Я этот диск, когда в Финляндии в магазине увидел, сразу слюной изошёл. Выложил деньги и ушёл со спокойной душой и пустым кошельком :)

_________________
Death The Ultimate Reality
Death The Ultimate Reason To Live


Top
 Profile  
 
 
PostPosted: 24 Apr 2014 
Прокъмитолист
User avatar
Joined: 12 Aug 2007
Posts: 6593
Lоcаtion: Санктъ-Петербуркъ
Age: 51
Name: Олекъ
сканы в png (как и Asphyxia): http://yadi.sk/d/bxI77vION9No2

альбом не качал, т.к. есть и релиз с ММТ, и пиратка. обожаю эту команду и очень уважаю Сорихту, как музыканта. жаль, что в дальнейшем он на своем творческом пути свернул не туда, куда бы мне хотелось. но все три Despair и первый альбом Grip Inc - великолепны.

_________________
прокъметол - это музыко, от которово есть прок (ы)


Top
 Profile  
 
 
PostPosted: 24 Apr 2014 
\m/ 80 см сала \m/
User avatar
Joined: 12 Mar 2012
Posts: 2590
Age: 26
Name: Nick
:thanx:
ач, 509 ошибка :pardon:

_________________
1990 AUROPHON BRAINSTORM (Germany) - lossless
1994 MAUSOLEUM CLASSIX (Belgium-Germany) - lossless
1998 VA - GRIM HARVEST - Complete Metal Massacre Volumes I-XII


Top
 Profile  
 
 
PostPosted: 24 Apr 2014 
Персональный статус
User avatar
Joined: 29 Jan 2009
Posts: 265
Lоcаtion: Таллин, Эстония.
Age: 32
Name: Роман Юрич
Придётся видимо, мне обзавестись яндекс диском. Дропбокс сказал, что слишком много желающих скачать.

_________________
Death The Ultimate Reality
Death The Ultimate Reason To Live


Top
 Profile  
 
 
PostPosted: 24 Apr 2014 
Partisanen - nicht kapitulieren!!
User avatar
Joined: 25 Dec 2011
Posts: 7086
Lоcаtion: партизанские леса
Age: 46
Name: Владимир
зерцало:
Lossless mail.ru
MP3 320 mail.ru

_________________
One more beer and Heavy Metal and I'm just fine!
старовер, куле... слово "блин" - до сих пор через Ъ говорю


Top
 Profile E-mail  
 
 
PostPosted: 25 Apr 2014 
\m/ 80 см сала \m/
User avatar
Joined: 12 Mar 2012
Posts: 2590
Age: 26
Name: Nick
32warlord1, :thanx:
перелью на яндекс, если Саныч не опередит :dance:

lossless: Narod | rusfolder

_________________
1990 AUROPHON BRAINSTORM (Germany) - lossless
1994 MAUSOLEUM CLASSIX (Belgium-Germany) - lossless
1998 VA - GRIM HARVEST - Complete Metal Massacre Volumes I-XII


Top
 Profile  
 
 
PostPosted: 25 Apr 2014 
Хиппей (support team)
User avatar
Joined: 30 Jul 2007
Posts: 114094
Lоcаtion: Киев (Kyiv, UA)
Age: 46
Name: Andrey
:thanx:

Сканы в оригинальном виде и формате: Narod - covers (in original format) l M-Cloud

_________________


Top
 Profile E-mail  
 
 
PostPosted: 27 Apr 2014 
Хиппей (support team)
User avatar
Joined: 30 Jul 2007
Posts: 114094
Lоcаtion: Киев (Kyiv, UA)
Age: 46
Name: Andrey
Lossless (another mirror): Narod l M-Cloud

_________________


Top
 Profile E-mail  
 
 
PostPosted: 30 Jan 2015 
Хиппей (support team)
User avatar
Joined: 30 Jul 2007
Posts: 114094
Lоcаtion: Киев (Kyiv, UA)
Age: 46
Name: Andrey
Придётся видимо, мне обзавестись яндекс диском. Дропбокс сказал, что слишком много желающих скачать.

А теперь и вовсе ты оттуда файлы убрал. Или... они сами окочурились?

_________________


Top
 Profile E-mail  
 
 
PostPosted: 30 Jan 2015 
Хиппей (support team)
User avatar
Joined: 30 Jul 2007
Posts: 114094
Lоcаtion: Киев (Kyiv, UA)
Age: 46
Name: Andrey
Альбом, я бы сказал, уникальный. Ничего похожего я не слышал, да и вряд ли услышу. Есть такие альбомы, которые ни на что не похожи. Я этот диск, когда в Финляндии в магазине увидел, сразу слюной изошёл. Выложил деньги и ушёл со спокойной душой и пустым кошельком :)

Альбом уникальным только своим странноватым техно-трэшем, как для наших тугих ух.
Мне напомнило это звучание либо британские трэш-проговые (техно-трэшевые команды), либо тпкие же. но канадские. Конкретных, точечных примеров привести не могу из-за дырявой памяти. А вот 5-й трэк это... профессионально записанная песня "Фантом" от Коррозии Металлу, только с английской лирикой и "ломаными ритмами" :crazy:
Вторая сторона винила выдержано уже в духе D.R.I., примерно. Только, опять-таки, в техно-трэшевом варианте и с таким же чисто трэшевым выкрикивающим, но не пищащим вокалистом.
Альбом неплох, и даже хорош, но лид-гитара с его владельцев и прог-фишками малость парит :fingal:

7/10

_________________


Top
 Profile E-mail  
 
 
PostPosted: 28 Apr 2016 
консэрваторъ
User avatar
Joined: 11 Aug 2007
Posts: 17172
Lоcаtion: Псков
Age: 45
Name: Сергей
Quote:
Divebomb Records планируют переиздать альбом немецких трэшеров DESPAIR "Beyond All Reason", в оригинале выпущенный в 1992 году на Century Media Records. Переиздание с полным цифровым ремастерингом материала и расширенным буклетом ожидается к выходу 10 июня.

Трек-лист:
“Beyond Comprehension”
“Deaf & Blind”
“Imported Love”
“The Day Of Desperation”
“In The Deep”
“Rage In The Eyes”
“Burnt Out Souls”
“Son Of The Wild”
“Crossed In Sorrow”

http://www.darkside.ru/news/83279/

_________________
THRASH 'EM ALL


Top
 Profile E-mail  
 
 
PostPosted: 28 Apr 2016 
Анатолий
User avatar
Joined: 18 Oct 2008
Posts: 3525
Lоcаtion: Армавир
Age: 42
Name: Анатолий
Хорошая была группа...


Top
 Profile E-mail  
 
 
PostPosted: 28 Apr 2016 
Персональный статус
Joined: 19 Jul 2010
Posts: 282
Lоcаtion: Москва
Name: Вадим
Beyond All Reason - нудный альбом. А первые два офигительные.


Top
 Profile E-mail  
 
Display posts from previous:  Sort by  
Post new topic Reply to topic  [ 19 posts ] 

All times are UTC + 3 hours


Who is online

Users browsing this forum: No registered users and 2 guests


You cannot post new topics in this forum
You cannot reply to topics in this forum
You cannot edit your posts in this forum
You cannot delete your posts in this forum
You cannot post attachments in this forum

Search for:
Яндекс.Метрика
Powered by phpBB © 2000, 2002, 2005, 2007 phpBB Group