\m/ 80's metal \m/

Информационно-аналитический форум "80 см пыли" (In Search We Trust) "У нас никто никуда не спешит"
Me For You - http://me-4u.com
It is currently 25 May 2019

All times are UTC + 3 hours

Spoiler
Chat - temporary registration for foreign users (please leave your application here)







Post new topic Reply to topic  [ 7 posts ] 
Author Message
 
PostPosted: 29 Jan 2014 
Генеральный thrasher
User avatar
Joined: 03 Oct 2008
Posts: 3708
Lоcаtion: Ханты-Мансийский АО
Age: 44
Name: Сергей
Image

Year:1988
Style:Thrash Metal/Crossover
Country:U.S.A.
Audio:Flac+Cue+Log+Scans
Size:187Mb
Source:my CD
Label:Heavy Metal Records

Line-Up:
Mike Illes - vocals & guitars
Paul Juestrich - guitars
Larry Leifheit - bass
The Kid - drums

Tracklist:
01. Addiction 02:51
02. Right Through You 03:00
03. Inside 02:01
04. Deadspot 03:13
05. Friday Night In Hell 02:02
06. This Means War 02:06
07. Power Tool 01:15
08. Another Day 02:25
09. My Death 03:40
10. Jesus Is My Best Friend 01:31

"Cue"
REM GENRE Crossover
REM DATE 1988
REM DISCID 7E05C30A
REM COMMENT "ExactAudioCopy v0.99pb5"
PERFORMER "Deadspot"
TITLE "Adios Dude"
FILE "Deadspot - Adios Dude.flac" WAVE
TRACK 01 AUDIO
TITLE "Addiction"
PERFORMER "Deadspot"
INDEX 00 00:00:00
INDEX 01 00:00:33
TRACK 02 AUDIO
TITLE "Right Through You"
PERFORMER "Deadspot"
INDEX 00 02:51:50
INDEX 01 02:55:28
TRACK 03 AUDIO
TITLE "Inside"
PERFORMER "Deadspot"
INDEX 00 05:55:73
INDEX 01 05:58:65
TRACK 04 AUDIO
TITLE "Deadspot"
PERFORMER "Deadspot"
INDEX 00 08:00:23
INDEX 01 08:03:40
TRACK 05 AUDIO
TITLE "Friday Night In Hell"
PERFORMER "Deadspot"
INDEX 00 11:16:58
INDEX 01 11:19:70
TRACK 06 AUDIO
TITLE "This Means War"
PERFORMER "Deadspot"
INDEX 00 13:22:15
INDEX 01 13:25:68
TRACK 07 AUDIO
TITLE "Powertool"
PERFORMER "Deadspot"
INDEX 00 15:32:30
INDEX 01 15:35:28
TRACK 08 AUDIO
TITLE "Another Day"
PERFORMER "Deadspot"
INDEX 00 16:50:60
INDEX 01 16:53:40
TRACK 09 AUDIO
TITLE "My Death"
PERFORMER "Deadspot"
INDEX 00 19:18:65
INDEX 01 19:20:70
TRACK 10 AUDIO
TITLE "Jesus Is My Best Friend"
PERFORMER "Deadspot"
INDEX 00 23:01:38
INDEX 01 23:03:58

"Log"
Exact Audio Copy V0.99 prebeta 5 from 4. May 2009

Отчёт EAC об извлечении, выполненном 23. мая 2013, 17:29

Deadspot / Adios Dude

Дисковод: MATSHITADVD-RAM UJ8A0AS Adapter: 0 ID: 1

Режим чтения : Достоверность
Использование точного потока : Да
Отключение кэша аудио : Да
Использование указателей C2 : Нет

Коррекция смещения при чтении : 102
Способность читать области Lead-in и Lead-out : Нет
Заполнение пропущенных сэмплов тишиной : Да
Удаление блоков с тишиной в начале и конце : Нет
При вычислениях CRC использовались нулевые сэмплы : Да
Интерфейс : Встроенный Win32-интерфейс для Win NT/2000

Выходной формат : Пользовательский кодировщик
Выбранный битрейт : 1024 kBit/s
Качество : Высокий
Добавление ID3-тэга : Нет
Утилита сжатия : C:\Program Files\Exact Audio Copy\FLAC\FLAC.EXE
Дополнительные параметры : -6 -V -T "ARTIST=%a" -T "TITLE=%t" -T "ALBUM=%g" -T "DATE=%y" -T "TRACKNUMBER=%n" -T "GENRE=%m" -T "COMMENT=%e" %s -o %d


TOC извлечённого CD

Трек | Старт | Длительность | Начальный сектор | Конечный сектор
---------------------------------------------------------------------
1 | 0:00.33 | 2:54.70 | 33 | 13152
2 | 2:55.28 | 3:03.37 | 13153 | 26914
3 | 5:58.65 | 2:04.50 | 26915 | 36264
4 | 8:03.40 | 3:16.30 | 36265 | 50994
5 | 11:19.70 | 2:05.73 | 50995 | 60442
6 | 13:25.68 | 2:09.35 | 60443 | 70152
7 | 15:35.28 | 1:18.12 | 70153 | 76014
8 | 16:53.40 | 2:27.30 | 76015 | 87069
9 | 19:20.70 | 3:42.63 | 87070 | 103782
10 | 23:03.58 | 1:31.32 | 103783 | 110639


Характеристики диапазона извлечения и сообщения об ошибках

Выбранный диапазон

Имя файла C:\Users\эксперт\Music\Deadspot - Adios Dude.wav

Пиковый уровень 86.5 %
Качество диапазона 100.0 %
CRC копии 33392238
Копирование... OK

Ошибок не произошло


AccurateRip: сводка

Трек 1 нет в базе данных
Трек 2 нет в базе данных
Трек 3 нет в базе данных
Трек 4 нет в базе данных
Трек 5 нет в базе данных
Трек 6 нет в базе данных
Трек 7 нет в базе данных
Трек 8 нет в базе данных
Трек 9 нет в базе данных
Трек 10 нет в базе данных

Ни одного трека нет в базе AccurateRip

Конец отчёта



Adios Dude


Top
 Profile  
 
 
PostPosted: 29 Jan 2014 
\m/ 80 см сала \m/
User avatar
Joined: 12 Mar 2012
Posts: 2590
Age: 26
Name: Nick
:thanx:

_________________
1990 AUROPHON BRAINSTORM (Germany) - lossless
1994 MAUSOLEUM CLASSIX (Belgium-Germany) - lossless
1998 VA - GRIM HARVEST - Complete Metal Massacre Volumes I-XII


Top
 Profile  
 
 
PostPosted: 29 Jan 2014 
Прокъмитолист
User avatar
Joined: 12 Aug 2007
Posts: 6552
Lоcаtion: Санктъ-Петербуркъ
Age: 51
Name: Олекъ
спасибо, Серёг! :thanx:

_________________
прокъметол - это музыко, от которово есть прок (ы)


Top
 Profile  
 
 
PostPosted: 29 Jan 2014 
Хиппей (support team)
User avatar
Joined: 30 Jul 2007
Posts: 112789
Lоcаtion: Киев (Kyiv, UA)
Age: 45
Name: Andrey
:thanx:

mirror: Narod l M-Cloud

_________________


Top
 Profile E-mail  
 
 
PostPosted: 29 Jan 2014 
Дежурный по КУПу
User avatar
Joined: 17 Aug 2007
Posts: 5871
Age: 50
Name: Ге
:thanx:

_________________
http://jp-mania.ru/
http://jp-tourdates.ucoz.ru/


Top
 Profile  
 
 
PostPosted: 01 Feb 2014 
Персональный статус
Joined: 19 Jul 2010
Posts: 282
Lоcаtion: Москва
Name: Вадим
:thanx:


Top
 Profile E-mail  
 
 
PostPosted: 06 Mar 2014 
ТрэшЭрос
User avatar
Joined: 18 Jul 2011
Posts: 2303
Lоcаtion: Гулькевичи
Age: 44
Name: Александр
:thanx: :true:

_________________
Thrash no trash!!!


Top
 Profile E-mail  
 
Display posts from previous:  Sort by  
Post new topic Reply to topic  [ 7 posts ] 

All times are UTC + 3 hours


Who is online

Users browsing this forum: No registered users and 2 guests


You cannot post new topics in this forum
You cannot reply to topics in this forum
You cannot edit your posts in this forum
You cannot delete your posts in this forum
You cannot post attachments in this forum

Search for:
Яндекс.Метрика
Powered by phpBB © 2000, 2002, 2005, 2007 phpBB Group