\m/ 80's metal \m/
http://80metal.com/

Damien - [USA] - 2011 - Beyond Apathy [mp3 & lossless]
http://80metal.com/viewtopic.php?f=177&t=11597
Page 2 of 2

Author:  glloomerxe [ 17 Apr 2014 ]
Post subject:  Re: Damien - [USA] - 2011 - Beyond Apathy [320]

:true: уря ! Я смотрел несколько раз , недавно выложили :dance:

Author:  Scatterbrain [ 24 Apr 2014 ]
Post subject:  Re: Damien - [USA] - 2011 - Beyond Apathy [320]

Сань, ты уже успел порадоваться и послушать того лосика?
А то я тута вот http://rutracker.org/forum/viewtopic.ph ... 5#63707645 насрал пошёл. Как думаешь, это у меня траблы со слухом? :vic:

зы. Естественно, пока к нам переливать не буду.

Author:  glloomerxe [ 24 Apr 2014 ]
Post subject:  Re: Damien - [USA] - 2011 - Beyond Apathy [320]

Нет сегодня слухану.

Author:  Scatterbrain [ 24 Apr 2014 ]
Post subject:  Re: Damien - [USA] - 2011 - Beyond Apathy [320]

Ага, ага... ок =)

Author:  Scatterbrain [ 24 Apr 2014 ]
Post subject:  Re: Damien - [USA] - 2011 - Beyond Apathy [320]

Альбом, кстати, на уровне. Но не на очень высоком. Прикльно слушать 5-ю композицию и 9-ю. Звучат как современные Judas Priest.
Впрочем, и остальные весьма похожи на Пристов. Или их современные клоны - так будет правильнее сказать :umnik:

Author:  Entomologist [ 24 Apr 2014 ]
Post subject:  Re: Damien - [USA] - 2011 - Beyond Apathy [320]

чегой-то не покатило как-то, мож из-за современности в музыке, мож из-за вокала.. Пристов не обнаружил, но более сотни разных групп на языке вертится, мож среди них и есть джудасы

Author:  Scatterbrain [ 24 Apr 2014 ]
Post subject:  Re: Damien - [USA] - 2011 - Beyond Apathy [320]

Entomologist wrote:
чегой-то не покатило как-то

А вот попробуй ранние альбомы коллективчика :mabila:

Author:  Entomologist [ 24 Apr 2014 ]
Post subject:  Re: Damien - [USA] - 2011 - Beyond Apathy [320]

Ок, к концу мая попробую. Через пару дней в Шпанию летим жуков выгри я тебя уважаю с гор, будет некогда

Author:  Scatterbrain [ 24 Apr 2014 ]
Post subject:  Re: Damien - [USA] - 2011 - Beyond Apathy [320]

Entomologist wrote:
Через пару дней в Шпанию летим жуков выгри я тебя уважаю с гор

Привед местным аборигенам. Не забудь фотик :thanx:

Author:  Scatterbrain [ 25 Apr 2014 ]
Post subject:  Re: Damien - [USA] - 2011 - Beyond Apathy [320]


Отставлю всё же этот рип пока и у нас... :vic: Дальше выясним, был ли косяк на самом диске.

mirror: Narod l M-Cloud

log
Exact Audio Copy V0.99 prebeta 5 from 4. May 2009

Отчёт EAC об извлечении, выполненном 2. апреля 2014, 0:04

Damien / Beyond Apathy

Дисковод: SlimtypeeSAU208 4 Adapter: 7 ID: 0

Режим чтения : Достоверность
Использование точного потока : Да
Отключение кэша аудио : Да
Использование указателей C2 : Нет

Коррекция смещения при чтении : 6
Способность читать области Lead-in и Lead-out : Нет
Заполнение пропущенных сэмплов тишиной : Да
Удаление блоков с тишиной в начале и конце : Нет
При вычислениях CRC использовались нулевые сэмплы : Нет
Интерфейс : Встроенный Win32-интерфейс для Win NT/2000

Выходной формат : Внутренние WAV-операции
Формат сэмплов : 44.100 Гц; 16 бит; стерео


TOC извлечённого CD

Трек | Старт | Длительность | Начальный сектор | Конечный сектор
---------------------------------------------------------------------
1 | 0:00.00 | 4:46.40 | 0 | 21489
2 | 4:46.40 | 4:11.47 | 21490 | 40361
3 | 8:58.12 | 4:26.11 | 40362 | 60322
4 | 13:24.23 | 3:52.14 | 60323 | 77736
5 | 17:16.37 | 4:15.25 | 77737 | 96886
6 | 21:31.62 | 6:30.45 | 96887 | 126181
7 | 28:02.32 | 4:10.73 | 126182 | 145004
8 | 32:13.30 | 3:49.51 | 145005 | 162230
9 | 36:03.06 | 5:50.61 | 162231 | 188541
10 | 41:53.67 | 4:23.06 | 188542 | 208272
11 | 46:16.73 | 3:54.27 | 208273 | 225849


Характеристики диапазона извлечения и сообщения об ошибках

Выбранный диапазон

Имя файла F:\Музыка\Damien\2011 - Beyond Apathy\Damien - Beyond Apathy.wav

Пиковый уровень 98.8 %
Качество диапазона 100.0 %
CRC копии DC72041B
Копирование... OK

Ошибок не произошло

Конец отчёта

cue
REM GENRE "Heavy Metal"
REM DATE 2011
REM DISCID 9E0BC30B
REM COMMENT "ExactAudioCopy v0.99pb5"
PERFORMER "Damien"
TITLE "Beyond Apathy"
FILE "Damien - Beyond Apathy.wav" WAVE
TRACK 01 AUDIO
TITLE "Alive"
PERFORMER "Damien"
INDEX 01 00:00:00
TRACK 02 AUDIO
TITLE "Beyond Apathy"
PERFORMER "Damien"
INDEX 00 04:46:39
INDEX 01 04:46:40
TRACK 03 AUDIO
TITLE "Justine And Juliette"
PERFORMER "Damien"
INDEX 00 08:58:11
INDEX 01 08:58:12
TRACK 04 AUDIO
TITLE "With A Smile"
PERFORMER "Damien"
INDEX 00 13:24:22
INDEX 01 13:24:23
TRACK 05 AUDIO
TITLE "Liberty"
PERFORMER "Damien"
INDEX 00 17:16:36
INDEX 01 17:16:37
TRACK 06 AUDIO
TITLE "Breathe"
PERFORMER "Damien"
INDEX 00 21:31:61
INDEX 01 21:31:62
TRACK 07 AUDIO
TITLE "Beltane Fire"
PERFORMER "Damien"
INDEX 00 28:02:31
INDEX 01 28:02:32
TRACK 08 AUDIO
TITLE "Living Dead"
PERFORMER "Damien"
INDEX 00 32:13:29
INDEX 01 32:13:30
TRACK 09 AUDIO
TITLE "The Shaman"
PERFORMER "Damien"
INDEX 00 36:03:05
INDEX 01 36:03:06
TRACK 10 AUDIO
TITLE "Sweet Polly"
PERFORMER "Damien"
INDEX 00 41:53:66
INDEX 01 41:53:67
TRACK 11 AUDIO
TITLE "Electrosplatter"
PERFORMER "Damien"
INDEX 00 46:16:72
INDEX 01 46:16:73

Author:  Scatterbrain [ 27 Apr 2014 ]
Post subject:  Re: Damien - [USA] - 2011 - Beyond Apathy [320]

Заново перекачал лося. Сейчас косяков не обнаружил :pardon:
Оставлю для проверки и всякого-прочего все доступные ранее ссылки.

Этот :losik: без косяков:

Damien - 2011 - Beyond Apathy [flac]

Image Image Image

mirror: Narod l

Page 2 of 2 All times are UTC + 3 hours
Powered by phpBB © 2000, 2002, 2005, 2007 phpBB Group
http://www.phpbb.com/