\m/ 80's metal \m/

Информационно-аналитический форум "80 см пыли" (In Search We Trust) "У нас никто никуда не спешит"
Me For You - http://me-4u.com
It is currently 25 May 2019

All times are UTC + 3 hours

Spoiler
Chat - temporary registration for foreign users (please leave your application here)







Post new topic Reply to topic  [ 9 posts ] 
Author Message
 
PostPosted: 18 Jul 2008 
Хиппей (support team)
User avatar
Joined: 30 Jul 2007
Posts: 112789
Lоcаtion: Киев (Kyiv, UA)
Age: 45
Name: Andrey
Drifter - 1989 - Nowhere To Hide [wv]

Attachment:
front.jpg
front.jpg [ 244.15 KiB | Viewed 160 times ]

Attachment:
back.jpg
back.jpg [ 198.76 KiB | Viewed 191 times ]


Genre: Speed/Power/Thrash
Location: Switzerland
Format: wv+cue+log+covers
Size: 292 Mb


Line-up:
Tommy Lion - vocals
Peter Wolff - guitar
Ivano Marcon - guitar
Sven Rosemann - bass
Guido Kirschke - drums

Phil Campbell of Motцrhead plays some guest guitar
    1. So Much Blood - 04:46
    2. Strontium Dog - 04:28
    3. Concrete Jungle - 03:47
    4. King Corruption - 05:12
    5. Forgotten Tower - 05:43
    6. Principle Of Speed - 05:17
    7. Shame Of a Perfect Race - 04:10
    8. The Elder - 05:23
    9. We Can't Be Beaten (Rose Tattoo cover) 03:38

    TPT: 36:41


MultiUp l Narod

log
Exact Audio Copy V0.99 prebeta 4 from 23. January 2008

EAC extraction logfile from 19. November 2008, 10:44

Drifter / Nowhere To Hide

Used drive : HL-DT-STDVD-RAM GH22LS30 Adapter: 0 ID: 0

Read mode : Secure
Utilize accurate stream : Yes
Defeat audio cache : Yes
Make use of C2 pointers : No

Read offset correction : 102
Overread into Lead-In and Lead-Out : No
Fill up missing offset samples with silence : Yes
Delete leading and trailing silent blocks : No
Null samples used in CRC calculations : Yes
Used interface : Installed external ASPI interface

Used output format : User Defined Encoder
Selected bitrate : 32 kBit/s
Quality : High
Add ID3 tag : No
Command line compressor : F:\Program Files\Exact Audio Copy\wavpack.exe
Additional command line options : -hm -w "Cuesheet=@*.cue" -w "Artist=%a" -w "Album=%g" -w "Year=%y" -w "Genre=%m" %s %d


TOC of the extracted CD

Track | Start | Length | Start sector | End sector
---------------------------------------------------------
1 | 0:00.32 | 4:46.30 | 32 | 21511
2 | 4:46.62 | 4:28.38 | 21512 | 41649
3 | 9:15.25 | 3:46.52 | 41650 | 58651
4 | 13:02.02 | 5:12.35 | 58652 | 82086
5 | 18:14.37 | 5:43.13 | 82087 | 107824
6 | 23:57.50 | 5:17.20 | 107825 | 131619
7 | 29:14.70 | 4:10.10 | 131620 | 150379
8 | 33:25.05 | 5:22.50 | 150380 | 174579
9 | 38:47.55 | 3:38.62 | 174580 | 190991


Range status and errors

Selected range

Filename E:\Riping\Drifter by elby\Drifter - Nowhere To Hide.wav

Peak level 98.9 %
Range quality 100.0 %
Copy CRC 5B5F1F13
Copy OK

No errors occurred


AccurateRip summary

Track 1 not present in database
Track 2 not present in database
Track 3 not present in database
Track 4 not present in database
Track 5 not present in database
Track 6 not present in database
Track 7 not present in database
Track 8 not present in database
Track 9 not present in database

None of the tracks are present in the AccurateRip database

End of status report


cue
REM GENRE "Thrash Metal"
REM DATE 1989
REM DISCID 8509F209
REM COMMENT "ExactAudioCopy v0.99pb4"
PERFORMER "Drifter"
TITLE "Nowhere To Hide"
FILE "Drifter - Nowhere To Hide.wv" WAVE
TRACK 01 AUDIO
TITLE "So Much Blood"
PERFORMER "Drifter"
INDEX 00 00:00:00
INDEX 01 00:00:32
TRACK 02 AUDIO
TITLE "Strontium Dog"
PERFORMER "Drifter"
INDEX 00 04:44:73
INDEX 01 04:46:62
TRACK 03 AUDIO
TITLE "Concrete Jungle"
PERFORMER "Drifter"
INDEX 00 09:13:35
INDEX 01 09:15:25
TRACK 04 AUDIO
TITLE "King Corruption"
PERFORMER "Drifter"
INDEX 00 13:00:19
INDEX 01 13:02:02
TRACK 05 AUDIO
TITLE "Forgotten Tower"
PERFORMER "Drifter"
INDEX 00 18:12:53
INDEX 01 18:14:37
TRACK 06 AUDIO
TITLE "Principle Of Speed"
PERFORMER "Drifter"
INDEX 00 23:55:65
INDEX 01 23:57:50
TRACK 07 AUDIO
TITLE "Shame Of A Perfect Race"
PERFORMER "Drifter"
INDEX 00 29:13:13
INDEX 01 29:14:70
TRACK 08 AUDIO
TITLE "The Elder"
PERFORMER "Drifter"
INDEX 01 33:25:05
TRACK 09 AUDIO
TITLE "We Can't Be Beaten"
PERFORMER "Drifter"
INDEX 00 38:46:01
INDEX 01 38:47:55


spectre
Attachment:
spectre.png
spectre.png [ 1.35 MiB | Viewed 167 times ]


Top
 Profile E-mail  
 
 
PostPosted: 18 Jul 2008 
труъ антисионист
User avatar
Joined: 01 Aug 2007
Posts: 4544
Lоcаtion: Откуда и большинство из нас
Age: 38
Name: Дядя Вова
Собственно сенкс :true:

_________________
Image
Image


Top
 Profile  
 
 
PostPosted: 18 Jul 2008 
Пионэръ
User avatar
Joined: 17 Jul 2008
Posts: 20
Age: 48
Name: Михаил
Андрюш, привет. Скажи, а как по мелодике этот альбомчег по сравнению с Reality Turn To Dust 87. Больше ничё из Drifter не слышал.


Top
 Profile E-mail  
 
 
PostPosted: 18 Jul 2008 
Хиппей (support team)
User avatar
Joined: 30 Jul 2007
Posts: 112789
Lоcаtion: Киев (Kyiv, UA)
Age: 45
Name: Andrey
mix31 wrote:
а как по мелодике этот альбомчег

А вот этот даже получше дебютника будет. Мелодичность и немного рваный ритм на месте, ребята самую малость утяжелились. Что на пользу :meloman:


Top
 Profile E-mail  
 
 
PostPosted: 20 Sep 2009 
Пионэръ
User avatar
Joined: 01 Feb 2009
Posts: 44
Lоcаtion: UA
Age: 30
Name: .
Можно перезалить пожалуйста?
Файлы по ссылкам удалены..

_________________
We're pain, we're steel, a plot of knives, we're Transmaniacon MC.


Top
 Profile  
 
 
PostPosted: 20 Sep 2009 
Хиппей (support team)
User avatar
Joined: 30 Jul 2007
Posts: 112789
Lоcаtion: Киев (Kyiv, UA)
Age: 45
Name: Andrey
Ээммм... в списке он у меня есть, а вот болванку с альбомом найти щас не могу, почему-то :fingal:

_________________


Top
 Profile E-mail  
 
 
PostPosted: 03 Oct 2011 
Хиппей (support team)
User avatar
Joined: 30 Jul 2007
Posts: 112789
Lоcаtion: Киев (Kyiv, UA)
Age: 45
Name: Andrey
Опа. Нашлось время перезалить.
Заодно и память восстановилась... :crazy:

_________________


Top
 Profile E-mail  
 
 
PostPosted: 04 Oct 2011 
Хиппей (support team)
User avatar
Joined: 30 Jul 2007
Posts: 112789
Lоcаtion: Киев (Kyiv, UA)
Age: 45
Name: Andrey
Ссылки обновлены :pardon:

_________________


Top
 Profile E-mail  
 
 
PostPosted: 04 Oct 2011 
ТрэшЭрос
User avatar
Joined: 18 Jul 2011
Posts: 2303
Lоcаtion: Гулькевичи
Age: 44
Name: Александр
Scatterbrain, благодарю!!! :thanx:

_________________
Thrash no trash!!!


Top
 Profile E-mail  
 
Display posts from previous:  Sort by  
Post new topic Reply to topic  [ 9 posts ] 

All times are UTC + 3 hours


Who is online

Users browsing this forum: No registered users and 2 guests


You cannot post new topics in this forum
You cannot reply to topics in this forum
You cannot edit your posts in this forum
You cannot delete your posts in this forum
You cannot post attachments in this forum

Search for:
Яндекс.Метрика
Powered by phpBB © 2000, 2002, 2005, 2007 phpBB Group