\m/ 80's metal \m/

Информационно-аналитический форум "80 см пыли" (In Search We Trust) "У нас никто никуда не спешит"
Me For You - http://me-4u.com
It is currently 27 May 2019

All times are UTC + 3 hours

Spoiler
Chat - temporary registration for foreign users (please leave your application here)







Post new topic Reply to topic  [ 6 posts ] 
Author Message
 
PostPosted: 02 Dec 2012 
Работнечег
User avatar
Joined: 28 Aug 2007
Posts: 5838
Lоcаtion: г. Москва
Age: 30
Name: Дима
Image

Band: Delirious
Album: Thoughtlessness (Demo)
Label: Reissued in 1997 with new artwork by B.Mind Records
Genre: Thrash Metal
Country: Germany
Format: Flac + Log + Cue + Covers/MP3@320 kbps + Covers
Size: 256 Mb/ 85 Mb

Line-Up:
Markus Keller - Drums
Andreas Supplie - Lead Guitar
Markus "Betty" Bednarek - Vocals
Simon Schröder - Bass
Alexander Cwertnia - Guitar


Tracklist:
1. Imitation 05:24
2. Open The Outlet 05:26
3. Thoughtlessness 04:25
4. Captured In Depth 06:38
5. The Unimaginable Extent Of Violence 04:09
6. Remains In The Dust 06:46

LOG
Exact Audio Copy V0.99 prebeta 5 from 4. May 2009

EAC extraction logfile from 24. November 2012, 22:47

Delirious / Thoughtlessness

Used drive : PIONEER DVD-RW DVR-116D Adapter: 0 ID: 0

Read mode : Secure
Utilize accurate stream : Yes
Defeat audio cache : Yes
Make use of C2 pointers : No

Read offset correction : 96
Overread into Lead-In and Lead-Out : No
Fill up missing offset samples with silence : Yes
Delete leading and trailing silent blocks : No
Null samples used in CRC calculations : Yes
Used interface : Native Win32 interface for Win NT & 2000

Used output format : User Defined Encoder
Selected bitrate : 32 kBit/s
Quality : High
Add ID3 tag : No
Command line compressor : C:\Program Files\Exact Audio Copy\Flac\flac.exe
Additional command line options : -6 -V %s


TOC of the extracted CD

Track | Start | Length | Start sector | End sector
---------------------------------------------------------
1 | 0:00.00 | 5:23.57 | 0 | 24281
2 | 5:23.57 | 5:25.38 | 24282 | 48694
3 | 10:49.20 | 4:24.47 | 48695 | 68541
4 | 15:13.67 | 6:37.62 | 68542 | 98378
5 | 21:51.54 | 4:08.38 | 98379 | 117016
6 | 26:00.17 | 6:46.28 | 117017 | 147494


Range status and errors

Selected range

Filename D:\Музыка\Lossless\Delirious - Thoughtlessness (1994)(Remastered In 1997)\Delirious - Thoughtlessness.wav

Peak level 99.0 %
Range quality 100.0 %
Copy CRC 48B417F2
Copy OK

No errors occurred


AccurateRip summary

Track 1 not present in database
Track 2 not present in database
Track 3 not present in database
Track 4 not present in database
Track 5 not present in database
Track 6 not present in database

None of the tracks are present in the AccurateRip database

End of status report

CUE
REM GENRE "Thrash Metal"
REM DATE 1997
REM DISCID 3D07AE06
REM COMMENT "ExactAudioCopy v0.99pb5"
PERFORMER "Delirious"
TITLE "Thoughtlessness"
FILE "Delirious - Thoughtlessness.flac" WAVE
TRACK 01 AUDIO
TITLE "Imitation"
PERFORMER "Delirious"
INDEX 01 00:00:00
TRACK 02 AUDIO
TITLE "Open the Outlet"
PERFORMER "Delirious"
INDEX 00 05:22:40
INDEX 01 05:23:57
TRACK 03 AUDIO
TITLE "Thoughtlessness"
PERFORMER "Delirious"
INDEX 01 10:49:20
TRACK 04 AUDIO
TITLE "Captured in Depth"
PERFORMER "Delirious"
INDEX 01 15:13:67
TRACK 05 AUDIO
TITLE "T.U.E.V. (The Unimaginable Extence of Violence)"
PERFORMER "Delirious"
INDEX 01 21:51:54
TRACK 06 AUDIO
TITLE "Remains in the Dust"
PERFORMER "Delirious"
INDEX 01 26:00:17

Spectrum
Image
Image


FLAC
MP3@320kbps

Рекомендую, кто не слышал!


Top
 Profile E-mail  
 
 
PostPosted: 02 Dec 2012 
Прокъмитолист
User avatar
Joined: 12 Aug 2007
Posts: 6553
Lоcаtion: Санктъ-Петербуркъ
Age: 51
Name: Олекъ
Димка, спасибо! :true:

_________________
прокъметол - это музыко, от которово есть прок (ы)


Top
 Profile  
 
 
PostPosted: 02 Dec 2012 
ТрэшЭрос
User avatar
Joined: 18 Jul 2011
Posts: 2303
Lоcаtion: Гулькевичи
Age: 44
Name: Александр
Чёрч побери! :true: Спасибо, Дим :thanx:
У меня, оказываеццо, были альбомы 99 и 01 :oops:

_________________
Thrash no trash!!!


Top
 Profile E-mail  
 
 
PostPosted: 03 Dec 2012 
Хиппей (support team)
User avatar
Joined: 30 Jul 2007
Posts: 112855
Lоcаtion: Киев (Kyiv, UA)
Age: 45
Name: Andrey
:thanx:

mirror: F-Bit l eDisk l Narod

_________________


Top
 Profile E-mail  
 
 
PostPosted: 15 Aug 2013 
Хиппей (support team)
User avatar
Joined: 30 Jul 2007
Posts: 112855
Lоcаtion: Киев (Kyiv, UA)
Age: 45
Name: Andrey
Ого. Еще одно открытие для себя обнаружил приятное :true:
Офигенный спид-тех-трэшак в духе... Аракайна =)
Жаль коротковат альбом. Приходится слушать все чаще и чаще.
8+/10

:meloman: :meloman: :meloman:

_________________


Top
 Profile E-mail  
 
 
PostPosted: 15 Aug 2013 
А может смените мне статус?..
User avatar
Joined: 28 Jul 2008
Posts: 969
Lоcаtion: Украина---Днепропетровск
Age: 45
Name: Александр
:thanx:

_________________
Музыка в которой я растворяюсь многих угнетает......


Top
 Profile  
 
Display posts from previous:  Sort by  
Post new topic Reply to topic  [ 6 posts ] 

All times are UTC + 3 hours


Who is online

Users browsing this forum: No registered users and 2 guests


You cannot post new topics in this forum
You cannot reply to topics in this forum
You cannot edit your posts in this forum
You cannot delete your posts in this forum
You cannot post attachments in this forum

Search for:
Яндекс.Метрика
Powered by phpBB © 2000, 2002, 2005, 2007 phpBB Group