\m/ 80's metal \m/

Информационно-аналитический форум "80 см пыли" (In Search We Trust) "У нас никто никуда не спешит"
Me For You - http://me-4u.com
It is currently 21 May 2019

All times are UTC + 3 hours

Spoiler
Chat - temporary registration for foreign users (please leave your application here)







Post new topic Reply to topic  [ 2 posts ] 
Author Message
 
PostPosted: 07 Oct 2012 
Работнечег
User avatar
Joined: 28 Aug 2007
Posts: 5838
Lоcаtion: г. Москва
Age: 30
Name: Дима
Image

Band: Days Of Yore
Album: The Mad God's Wage
Label: Self-released
Genre: Power Metal
Country: Canada
Format: Flac + Log + Cue + Covers/MP3@320 kbps + Covers
Size: 412 Mb

Line-Up:
Martin Giguère - Guitar, Drum & Bass programming, K2000 Strings orchestration (ex-Deimos)
Sylvain Giguère - Guitar, K2000 Strings orchestration (ex-Deimos)
Jérôme Parent - Vocals (ex-Winds of War)


Tracklist:
1. The Awakening 01:21
2. Gathering Clouds 03:35
3. The Forthcoming Storm 01:51
4. The Odyssey 03:06
5. The Riddle of the Sphinx 07:14
6. Revelation 00:48
7. Imperilled Kingdom 03:21
8. In the Dead of the Darkened Night 03:11
9. Sword Against Fire (Part I) 02:59
10. Sword Against Fire (Part II) 03:11
11. Essence of a God 00:36
12. The Hand of Truth 05:31
13. The Old Sore Reopen 01:32
14. Sole Hero 05:10
15. The Visage of Doom 03:31
16. Clash At Dawn 06:30
17. The Triumph and the Ransom Due 01:50
18. The Wages of Defeat 01:01

LOG
Exact Audio Copy V0.99 prebeta 5 from 4. May 2009

EAC extraction logfile from 15. September 2012, 19:32

Days Of Yore / The Mad God's Wage

Used drive : PIONEER DVD-RW DVR-116D Adapter: 0 ID: 0

Read mode : Secure
Utilize accurate stream : Yes
Defeat audio cache : Yes
Make use of C2 pointers : No

Read offset correction : 96
Overread into Lead-In and Lead-Out : No
Fill up missing offset samples with silence : Yes
Delete leading and trailing silent blocks : No
Null samples used in CRC calculations : Yes
Used interface : Native Win32 interface for Win NT & 2000

Used output format : User Defined Encoder
Selected bitrate : 32 kBit/s
Quality : High
Add ID3 tag : No
Command line compressor : C:\Program Files\Exact Audio Copy\Flac\flac.exe
Additional command line options : -6 -V %s


TOC of the extracted CD

Track | Start | Length | Start sector | End sector
---------------------------------------------------------
1 | 0:00.00 | 1:21.37 | 0 | 6111
2 | 1:21.37 | 3:35.08 | 6112 | 22244
3 | 4:56.45 | 1:50.67 | 22245 | 30561
4 | 6:47.37 | 3:05.50 | 30562 | 44486
5 | 9:53.12 | 7:14.58 | 44487 | 77094
6 | 17:07.70 | 0:47.70 | 77095 | 80689
7 | 17:55.65 | 3:20.22 | 80690 | 95711
8 | 21:16.12 | 3:11.33 | 95712 | 110069
9 | 24:27.45 | 2:58.72 | 110070 | 123491
10 | 27:26.42 | 3:10.45 | 123492 | 137786
11 | 30:37.12 | 0:36.28 | 137787 | 140514
12 | 31:13.40 | 5:31.17 | 140515 | 165356
13 | 36:44.57 | 1:31.65 | 165357 | 172246
14 | 38:16.47 | 5:10.20 | 172247 | 195516
15 | 43:26.67 | 3:30.48 | 195517 | 211314
16 | 46:57.40 | 6:30.00 | 211315 | 240564
17 | 53:27.40 | 1:50.17 | 240565 | 248831
18 | 55:17.57 | 1:00.73 | 248832 | 253404


Range status and errors

Selected range

Filename D:\Музыка\Lossless\Days Of Yore - The Mad God's Wage (1997)\Days Of Yore - The Mad God's Wage.wav

Suspicious position 0:55:47
Suspicious position 0:56:00
Suspicious position 0:56:02 - 0:56:03
Suspicious position 0:56:06 - 0:56:07
Suspicious position 0:56:11 - 0:56:16

Peak level 100.0 %
Range quality 99.4 %
Copy CRC DC8FF003
Copy finished

There were errors


AccurateRip summary

Track 1 accurately ripped (confidence 2) [613B555E]
Track 2 accurately ripped (confidence 2) [0D582E28]
Track 3 accurately ripped (confidence 2) [E3BC6A79]
Track 4 accurately ripped (confidence 2) [25507901]
Track 5 accurately ripped (confidence 2) [9EF206B5]
Track 6 accurately ripped (confidence 2) [FC577C0E]
Track 7 accurately ripped (confidence 2) [CBE5B60B]
Track 8 accurately ripped (confidence 2) [C7744A4D]
Track 9 accurately ripped (confidence 2) [FB3228A6]
Track 10 accurately ripped (confidence 2) [39FC93FA]
Track 11 accurately ripped (confidence 2) [F3F16165]
Track 12 accurately ripped (confidence 2) [4493E7B4]
Track 13 accurately ripped (confidence 2) [F611E34A]
Track 14 accurately ripped (confidence 2) [31C4A9CD]
Track 15 accurately ripped (confidence 2) [2655AECF]
Track 16 accurately ripped (confidence 2) [234D8C67]
Track 17 accurately ripped (confidence 2) [3613595F]
Track 18 cannot be verified as accurate (confidence 2) [F2BAC12D], AccurateRip returned [AA912876]

17 track(s) accurately ripped
1 track(s) could not be verified as accurate

Some tracks could not be verified as accurate

End of status report

CUE
REM GENRE "Power Metal"
REM DATE 1997
REM DISCID 200D3212
REM COMMENT "ExactAudioCopy v0.99pb5"
PERFORMER "Days Of Yore"
TITLE "The Mad God's Wage"
FILE "Days Of Yore - The Mad God's Wage.flac" WAVE
TRACK 01 AUDIO
TITLE "The Awakening"
PERFORMER "Days Of Yore"
INDEX 01 00:00:00
TRACK 02 AUDIO
TITLE "Gathering Clouds"
PERFORMER "Days Of Yore"
INDEX 01 01:21:37
TRACK 03 AUDIO
TITLE "The Forthcoming Storm"
PERFORMER "Days Of Yore"
INDEX 01 04:56:45
TRACK 04 AUDIO
TITLE "The Odyssey"
PERFORMER "Days Of Yore"
INDEX 01 06:47:37
TRACK 05 AUDIO
TITLE "The Riddle Of The Sphinx"
PERFORMER "Days Of Yore"
INDEX 01 09:53:12
TRACK 06 AUDIO
TITLE "Revelation "
PERFORMER "Days Of Yore"
INDEX 01 17:07:70
TRACK 07 AUDIO
TITLE "Imperiled Kingdom"
PERFORMER "Days Of Yore"
INDEX 01 17:55:65
TRACK 08 AUDIO
TITLE "In The Dead Of The Darkened Night"
PERFORMER "Days Of Yore"
INDEX 01 21:16:12
TRACK 09 AUDIO
TITLE "Sword Against Fire Part I"
PERFORMER "Days Of Yore"
INDEX 01 24:27:45
TRACK 10 AUDIO
TITLE "Sword Against Fire Part II"
PERFORMER "Days Of Yore"
INDEX 01 27:26:42
TRACK 11 AUDIO
TITLE "Essence Of A God"
PERFORMER "Days Of Yore"
INDEX 01 30:37:12
TRACK 12 AUDIO
TITLE "The Hand Of Truth"
PERFORMER "Days Of Yore"
INDEX 01 31:13:40
TRACK 13 AUDIO
TITLE "The Old Sore Reopen"
PERFORMER "Days Of Yore"
INDEX 01 36:44:57
TRACK 14 AUDIO
TITLE "Sole Hero"
PERFORMER "Days Of Yore"
INDEX 01 38:16:47
TRACK 15 AUDIO
TITLE "The Visage Of Doom"
PERFORMER "Days Of Yore"
INDEX 01 43:26:67
TRACK 16 AUDIO
TITLE "Clash At Dawn"
PERFORMER "Days Of Yore"
INDEX 01 46:57:40
TRACK 17 AUDIO
TITLE "The Triumph And The Random Due"
PERFORMER "Days Of Yore"
INDEX 01 53:27:40
TRACK 18 AUDIO
TITLE "The Wages Of Defeat"
PERFORMER "Days Of Yore"
INDEX 01 55:17:57

Spectrum
Image


phpBB [youtube]

phpBB [youtube]


Narod.ru

Довольно оригинальная канадская группа, играющая павер с небольшим как мне показалось налетом прогрессива. У вокалиста очень своеобразная манера исполнения, понравится не всем) Альбом оставил приятные впечатления, надеюсь и у вас будут такие же.
P.S. мп3 320 есть на рутрекере, но если кому-то очень надо будет, то сделаю, пишите в теме или лс.
P.P.S. последний трэк сграбился с ошибкой, но никаких косяков в звучании не обнаружил, так что думаю не так это и принципиально)


Top
 Profile E-mail  
 
 
PostPosted: 07 Oct 2012 
Прокъмитолист
User avatar
Joined: 12 Aug 2007
Posts: 6552
Lоcаtion: Санктъ-Петербуркъ
Age: 51
Name: Олекъ
спасибо, Дим, заберу :thanx:
может попробуешь еще несколько раз последний трэк сграбить? я бы протер аккуратно диск и попытался сграбить в разных режимах (в бёрсте, например). если бы получилось, то можно было бы потом пересобрать образ заново, заменив этот проблемный трэк.

_________________
прокъметол - это музыко, от которово есть прок (ы)


Top
 Profile  
 
Display posts from previous:  Sort by  
Post new topic Reply to topic  [ 2 posts ] 

All times are UTC + 3 hours


Who is online

Users browsing this forum: No registered users and 1 guest


You cannot post new topics in this forum
You cannot reply to topics in this forum
You cannot edit your posts in this forum
You cannot delete your posts in this forum
You cannot post attachments in this forum

Search for:
Яндекс.Метрика
Powered by phpBB © 2000, 2002, 2005, 2007 phpBB Group